Home > Mini-HD > [MINI-HD 1080P] Mortal Engines (2018) สมรภูมิล่าเมือง จักรกลมรณะ [พากย์ไทยโรง] [MKV]

[MINI-HD 1080P] Mortal Engines (2018) สมรภูมิล่าเมือง จักรกลมรณะ [พากย์ไทยโรง] [MKV]

[MINI-HD 1080P] Mortal Engines (2018) สมรภูมิล่าเมือง จักรกลมรณะ

Mortal.Engines.2018.1080p.KORSUB.HDRip.x264.AAC2.0-THR.AC3.2.0[Load2up.com].mkv
Format : Matroska
Format version : Version 4 / Version 2
File size : 3.74 GiB
Duration : 2 h 7 min
Overall bit rate : 4 183 kb/s
Movie name : Mortal.Engines.2018.1080p.KORSUB.HDRip.x264.AAC2.0
Encoded date : UTC 2019-01-23 03:26:00
Writing application : mkvmerge v26.0.0 (‘In The Game’) 32-bit
Writing library : libebml v1.3.6 + libmatroska v1.4.9
Cover : Yes
Attachments : small_cover.jpg / small_cover_land.jpg / cover.jpg / cover_land.jpg

Video
ID : 1
Format : AVC
Format/Info : Advanced Video Codec
Format profile : [email protected]
Format settings, CABAC : Yes
Format settings, RefFrames : 4 frames
Codec ID : V_MPEG4/ISO/AVC
Duration : 2 h 7 min
Bit rate : 3 820 kb/s
Width : 1 920 pixels
Height : 1 080 pixels
Display aspect ratio : 16:9
Frame rate mode : Constant
Frame rate : 23.976 (24000/1001) FPS
Color space : YUV
Chroma subsampling : 4:2:0
Bit depth : 8 bits
Scan type : Progressive
Bits/(Pixel*Frame) : 0.077
Stream size : 3.34 GiB (89%)
Title : Mortal.Engines.2018.1080p.KORSUB.HDRip.x264.AAC2.0
Writing library : x264 core 142 r2479 dd79a61
Default : Yes
Forced : No
Color range : Limited
Color primaries : BT.709
Transfer characteristics : BT.709
Matrix coefficients : BT.709

Audio #1
ID : 2
Format : AC-3
Format/Info : Audio Coding 3
Format settings, Endianness : Big
Codec ID : A_AC3
Duration : 2 h 7 min
Bit rate mode : Constant
Bit rate : 192 kb/s
Channel(s) : 2 channels
Channel positions : Front: L R
Sampling rate : 48.0 kHz
Frame rate : 31.250 FPS (1536 SPF)
Bit depth : 16 bits
Compression mode : Lossy
Stream size : 176 MiB (5%)
Title : THR_by_TTWW
Language : Thai
Service kind : Complete Main
Default : No
Forced : No

Audio #2
ID : 3
Format : AAC
Format/Info : Advanced Audio Codec
Format profile : LC
Codec ID : A_AAC
Duration : 2 h 7 min
Bit rate : 256 kb/s
Channel(s) : 2 channels
Channel positions : Front: L R
Sampling rate : 48.0 kHz
Frame rate : 46.875 FPS (1024 SPF)
Compression mode : Lossy
Delay relative to video : 27 ms
Stream size : 234 MiB (6%)
Title : Mortal.Engines.2018.1080p.KORSUB.HDRip.x264.AAC2.0
Language : English
Default : Yes
Forced : No



หมายเหตุ ทุกเว็บโหลดแทนกันได้ แต่ต้องเปลี่ยนชื่อให้เรียงกันด้วย

สำหรับสมาชิก VIP เท่านั้น!

[restrict …]

|——————————————————————|

|——————————————————————|

[/restrict]