Home > Mini-HD > [MINI-HD 1080P] Monstrum (2018) พันธุ์อสูรกลาย [พากย์ไทยโรง + เสียงเกาหลี] [MKV] [ONE2UP]

[MINI-HD 1080P] Monstrum (2018) พันธุ์อสูรกลาย [พากย์ไทยโรง + เสียงเกาหลี] [MKV] [ONE2UP]

[MINI-HD 1080P] Monstrum (2018) พันธุ์อสูรกลาย

Monstrum.2018.1080p.FHDRip.x264.AAC [Load2up.com].mkv
Format : Matroska
Format version : Version 4 / Version 2
File size : 4.09 GiB
Duration : 1 h 45 min
Overall bit rate : 5 567 kb/s
Encoded date : UTC 2018-11-01 06:43:21
Writing application : mkvmerge v28.2.0 (‘The Awakening’) 64-bit
Writing library : libebml v1.3.6 + libmatroska v1.4.9

Video
ID : 1
Format : AVC
Format/Info : Advanced Video Codec
Format profile : [email protected]
Format settings, CABAC : Yes
Format settings, ReFrames : 4 frames
Codec ID : V_MPEG4/ISO/AVC
Duration : 1 h 45 min
Bit rate : 5 120 kb/s
Width : 1 920 pixels
Height : 1 080 pixels
Display aspect ratio : 16:9
Frame rate mode : Constant
Frame rate : 24.000 FPS
Color space : YUV
Chroma subsampling : 4:2:0
Bit depth : 8 bits
Scan type : Progressive
Bits/(Pixel*Frame) : 0.103
Stream size : 3.76 GiB (92%)
Writing library : x264 core 148 r2768 d32d7bf
Default : Yes
Forced : No

Audio #1
ID : 2
Format : AAC
Format/Info : Advanced Audio Codec
Format profile : LC
Codec ID : A_AAC
Duration : 1 h 45 min
Bit rate : 128 kb/s
Channel(s) : 2 channels
Channel positions : Front: L R
Sampling rate : 44.1 kHz
Frame rate : 43.066 FPS (1024 spf)
Compression mode : Lossy
Delay relative to video : 8 s 0 ms
Stream size : 96.1 MiB (2%)
Title : Thairong 2CH
Language : Thai
Default : Yes
Forced : Yes

Audio #2
ID : 3
Format : AAC
Format/Info : Advanced Audio Codec
Format profile : LC
Codec ID : A_AAC
Duration : 1 h 45 min
Bit rate : 320 kb/s
Channel(s) : 2 channels
Channel positions : Front: L R
Sampling rate : 48.0 kHz
Frame rate : 46.875 FPS (1024 spf)
Compression mode : Lossy
Stream size : 241 MiB (6%)
Title : Korean 2CH
Language : Korean
Default : No
Forced : No



หมายเหตุ ทุกเว็บโหลดแทนกันได้ แต่ต้องเปลี่ยนชื่อให้เรียงกันด้วย

สำหรับสมาชิก VIP เท่านั้น!

[restrict …]

|——————————————————————|

|——————————————————————|

[/restrict]