Home > Mini-HD > [MINI-HD 1080P] Monster Hunt 2 (2018) ศึกถล่มฟ้า อสูรน้อยจอมซน ภาค2 [พากย์:ไทย+จีน] [MKV] [ONE2UP

[MINI-HD 1080P] Monster Hunt 2 (2018) ศึกถล่มฟ้า อสูรน้อยจอมซน ภาค2 [พากย์:ไทย+จีน] [MKV] [ONE2UP

[MINI-HD 1080P] Monster Hunt 2 (2018) ศึกถล่มฟ้า อสูรน้อยจอมซน ภาค 2

Monster.Hunt.2.2018.BluRay.1080p.x264[Load2up.com].mkv
Format : Matroska
Format version : Version 4 / Version 2
File size : 4.40 GiB
Duration : 1 h 50 min
Overall bit rate : 5 710 kb/s
Movie name : YiFan @ WiKi
Encoded date : UTC 2018-07-09 05:26:53
Writing application : mkvmerge v19.0.0 (‘Brave Captain’) 64-bit
Writing library : libebml v1.3.5 + libmatroska v1.4.8

Video
ID : 1
Format : AVC
Format/Info : Advanced Video Codec
Format profile : [email protected]
Format settings, CABAC : Yes
Format settings, ReFrames : 2 frames
Codec ID : V_MPEG4/ISO/AVC
Duration : 1 h 50 min
Bit rate : 5 000 kb/s
Width : 1 920 pixels
Height : 1 080 pixels
Display aspect ratio : 16:9
Frame rate mode : Constant
Frame rate : 23.976 (24000/1001) FPS
Color space : YUV
Chroma subsampling : 4:2:0
Bit depth : 8 bits
Scan type : Progressive
Bits/(Pixel*Frame) : 0.101
Stream size : 3.73 GiB (85%)
Writing library : x264 core 80 r1376 3feaec2
Default : Yes
Forced : No

Audio #1
ID : 2
Format : AC-3
Format/Info : Audio Coding 3
Format settings, Endianness : Big
Codec ID : A_AC3
Duration : 1 h 50 min
Bit rate mode : Constant
Bit rate : 224 kb/s
Channel(s) : 2 channels
Channel positions : Front: L R
Sampling rate : 48.0 kHz
Frame rate : 31.250 FPS (1536 spf)
Bit depth : 16 bits
Compression mode : Lossy
Stream size : 177 MiB (4%)
Title : Thai / Dolby surround
Language : Thai
Service kind : Complete Main
Default : No
Forced : Yes

Audio #2
ID : 3
Format : AC-3
Format/Info : Audio Coding 3
Format settings, Endianness : Big
Codec ID : A_AC3
Duration : 1 h 50 min
Bit rate mode : Constant
Bit rate : 640 kb/s
Channel(s) : 6 channels
Channel positions : Front: L C R, Side: L R, LFE
Sampling rate : 48.0 kHz
Frame rate : 31.250 FPS (1536 spf)
Bit depth : 16 bits
Compression mode : Lossy
Stream size : 505 MiB (11%)
Title : Chinese / Dolby Digital
Language : Chinese
Service kind : Complete Main
Default : No
Forced : No



หมายเหตุ ทุกเว็บโหลดแทนกันได้ แต่ต้องเปลี่ยนชื่อให้เรียงกันด้วย

สำหรับสมาชิก VIP เท่านั้น!

[restrict …]

|——————————————————————|

|——————————————————————|

[/restrict]