Home > Mini-HD > [MINI-HD 1080P] Miss Peregrine’s Home for Peculiar Children (2016) บ้านเพริกริน เด็กสุดมหัศจรรย์ [พากย์ไทย+อังกฤษ] [พากย์ไทย-บรรยายอังกฤษ] [MKV] [FILEFENIX] [ONE2UP]

[MINI-HD 1080P] Miss Peregrine’s Home for Peculiar Children (2016) บ้านเพริกริน เด็กสุดมหัศจรรย์ [พากย์ไทย+อังกฤษ] [พากย์ไทย-บรรยายอังกฤษ] [MKV] [FILEFENIX] [ONE2UP]

[MINI-HD 1080P] Miss Peregrine’s Home for Peculiar Children (2016) บ้านเพริกริน เด็กสุดมหัศจรรย์

Miss Peregrine จากนวนิยายขายดีที่ได้รับการดัดแปลงผ่านจินตนาการสุดบรรเจิดของผู้กำกับ ทิม เบอร์ตัน สู่ประสบการณ์บนจอภาพยนตร์อันยากจะลืมเลือน เมื่อเจคค้นพบเงื่อนงำสู่ความลับที่เกี่ยวข้องกับความเป็นจริงและช่วงเวลาคู่ขนาน เขาจึงได้ไปเจอที่ซ่อนลับซึ่งมีชื่อว่าบ้านเด็กประหลาดของมิสเพริกริน หลังจากเจคได้รู้เรื่องราวของเหล่าผู้อยู่อาศัยภายในบ้านและพลังพิเศษของพวกเขา เจคจึงได้ตระหนักว่าความปลอดภัยเป็นเพียงสิ่งลวงตา และอันตรายซุ่มซ่อนอยู่ในรูปของศัตรูผู้ทรงพลัง เจคจึงต้องหาคำตอบว่าความเป็นจริงคืออะไร ใครที่เชื่อใจได้ และแท้จริงแล้วตัวเขาเองนั้นเป็นใคร

Miss.Peregrines.Home.for.Peculiar.Children.2016.1080p.BluRay.x264.DTS+MASTER_ITUNES[Load2up.com].mkv
Format : Matroska
Format version : Version 4 / Version 2
File size : 4.34 GiB
Duration : 2 h 7 min
Overall bit rate : 4 880 kb/s
Encoded date : UTC 2016-12-17 12:03:28
Writing application : mkvmerge v9.2.0 (‘Photograph’) 64bit
Writing library : libebml v1.3.3 + libmatroska v1.4.4

Video
ID : 1
Format : AVC
Format/Info : Advanced Video Codec
Format profile : [email protected]
Format settings, CABAC : Yes
Format settings, ReFrames : 4 frames
Codec ID : V_MPEG4/ISO/AVC
Duration : 2 h 6 min
Bit rate : 2 850 kb/s
Width : 1 920 pixels
Height : 1 040 pixels
Display aspect ratio : 1.85:1
Frame rate mode : Constant
Frame rate : 23.976 (24000/1001) FPS
Color space : YUV
Chroma subsampling : 4:2:0
Bit depth : 8 bits
Scan type : Progressive
Bits/(Pixel*Frame) : 0.060
Stream size : 2.53 GiB (58%)
Writing library : x264 core 148 r2638 7599210
Language : English
Default : Yes
Forced : No

Audio #1
ID : 2
Format : DTS
Format/Info : Digital Theater Systems
Mode : 16
Format settings, Endianness : Big
Codec ID : A_DTS
Duration : 2 h 6 min
Bit rate mode : Constant
Bit rate : 755 kb/s
Channel(s) : 6 channels
Channel positions : Front: L C R, Side: L R, LFE
Sampling rate : 48.0 kHz
Frame rate : 93.750 FPS (512 spf)
Bit depth : 24 bits
Compression mode : Lossy
Stream size : 685 MiB (15%)
Title : English DTS
Language : English
Default : Yes
Forced : No

Audio #2
ID : 5
Format : AC-3
Format/Info : Audio Coding 3
Mode extension : CM (complete main)
Format settings, Endianness : Big
Codec ID : A_AC3
Duration : 2 h 7 min
Bit rate mode : Constant
Bit rate : 640 kb/s
Channel(s) : 6 channels
Channel positions : Front: L C R, Side: L R, LFE
Sampling rate : 48.0 kHz
Frame rate : 31.250 FPS (1536 spf)
Bit depth : 16 bits
Compression mode : Lossy
Stream size : 582 MiB (13%)
Title : AC3.TH._6CH [Modified From MASTER_ITUNES] Language : Thai
Default : No
Forced : No

Audio #3
ID : 6
Format : AC-3
Format/Info : Audio Coding 3
Mode extension : CM (complete main)
Format settings, Endianness : Big
Codec ID : A_AC3
Duration : 2 h 7 min
Bit rate mode : Constant
Bit rate : 640 kb/s
Channel(s) : 2 channels
Channel positions : Front: L R
Sampling rate : 48.0 kHz
Frame rate : 31.250 FPS (1536 spf)
Bit depth : 16 bits
Compression mode : Lossy
Stream size : 582 MiB (13%)
Title : AC3.TH. 2.0_ITUNES
Language : Thai
Default : No
Forced : No

Text #1
ID : 3
Format : UTF-8
Codec ID : S_TEXT/UTF8
Codec ID/Info : UTF-8 Plain Text
Duration : 2 h 1 min
Bit rate : 50 b/s
Count of elements : 1570
Stream size : 44.7 KiB (0%)
Title : English(SRT)
Language : English
Default : Yes
Forced : No

Text #2
ID : 4
Format : UTF-8
Codec ID : S_TEXT/UTF8
Codec ID/Info : UTF-8 Plain Text
Duration : 2 h 1 min
Bit rate : 54 b/s
Count of elements : 1804
Stream size : 48.8 KiB (0%)
Title : English(SDH)
Language : English
Default : No
Forced : No



หมายเหตุ ทุกเว็บโหลดแทนกันได้ แต่ต้องเปลี่ยนชื่อให้เรียงกันด้วย