Home > Mini-HD > [MINI-HD 1080P] Logan Lucky (2017) แผนปล้นลัคกี้ โชคดีนะโลแกน [พากย์อังกฤษ 5.1] [ซับไทย + อังกฤษ] [MKV] [ONE2UP]

[MINI-HD 1080P] Logan Lucky (2017) แผนปล้นลัคกี้ โชคดีนะโลแกน [พากย์อังกฤษ 5.1] [ซับไทย + อังกฤษ] [MKV] [ONE2UP]

[MINI-HD 1080P] Logan Lucky (2017) แผนปล้นลัคกี้ โชคดีนะโลแกน

สองพี่น้องอับโชคตระกูลโลแกน จิมมี่ (แชนนิ่ง ทาทั่ม) และ ไคลด์ (อดัม ไดรเวอร์) ร่วมกันก่อแผนโจรกรรมครั้งใหญ่ในงานแข่งรถแข่ง นาสคาร์ โคคาโคล่า 600 ณ สนามชาร์ลอตมอเตอร์สปีดเวย์ พวกเขาต้องสร้างทีมขึ้นมาเพื่อปฏิบัติการครั้งนี้ หนึ่งในสมาชิกที่พวกเขาจะขาดไม่ได้คือ ผู้เชี่ยวชาญด้านระเบิดอย่าง โจ แบง (แดเนียล เคร็ก) เมื่อกลุ่มคนสุดป่วนร่วมมือกันดำเนินแผนโจรกรรมครั้งใหญ่ที่จะทำให้ชีวิตของพวกเขาเปลี่ยนไปตลอดกาล
เตรียมพบกับผลงานการกลับมาของผู้กำกับระดับตำนาน สตีเว่น โซเดอร์เบิร์ก ที่ได้สร้างความมันให้กับผู้ชมมานักต่อนักแล้วในสุดยอดภาพยนตร์โจรกรรมที่เหนือชั้นอย่าง Ocean’s 11-12-13 ในครั้งนี้คุณจะได้พบกับการรวมตัวของเหล่าซูเปอร์สตาร์ที่มาพร้อมกับแผนโจรกรรมสุดเพี้ยนที่ไม่มีใครคาดถึง

Logan.Lucky.2017.1080p.WEB-DL.AC3.SUBThai.264[Load2up.com].mkv
Format : Matroska
Format version : Version 4 / Version 2
File size : 4.13 GiB
Duration : 1 h 59 min
Overall bit rate : 4 967 kb/s
Movie name : Logan.Lucky.2017.1080p.WEB-DL.AC3.SUBThai.264
Encoded date : UTC 2018-01-03 18:18:13
Writing application : mkvmerge v18.0.0 (‘Apricity’) 64-bit
Writing library : libebml v1.3.5 + libmatroska v1.4.8
Cover : Yes
Attachments : small_cover.jpg / small_cover_land.jpg / cover.jpg / cover_land.jpg

Video
ID : 1
Format : AVC
Format/Info : Advanced Video Codec
Format profile : [email protected]
Format settings, CABAC : Yes
Format settings, ReFrames : 5 frames
Codec ID : V_MPEG4/ISO/AVC
Duration : 1 h 59 min
Bit rate : 4 529 kb/s
Width : 1 920 pixels
Height : 804 pixels
Display aspect ratio : 2.40:1
Frame rate mode : Constant
Frame rate : 23.976 (24000/1001) FPS
Color space : YUV
Chroma subsampling : 4:2:0
Bit depth : 8 bits
Scan type : Progressive
Bits/(Pixel*Frame) : 0.122
Stream size : 3.77 GiB (91%)
Title : Logan.Lucky.2017.1080p.WEB-DL.AC3
Language : English
Default : Yes
Forced : No
Color range : Limited
Color primaries : BT.709
Transfer characteristics : BT.709
Matrix coefficients : BT.709

Audio
ID : 2
Format : AC-3
Format/Info : Audio Coding 3
Format settings, Endianness : Big
Codec ID : A_AC3
Duration : 1 h 59 min
Bit rate mode : Constant
Bit rate : 384 kb/s
Channel(s) : 6 channels
Channel positions : Front: L C R, Side: L R, LFE
Sampling rate : 48.0 kHz
Frame rate : 31.250 FPS (1536 spf)
Bit depth : 16 bits
Compression mode : Lossy
Delay relative to video : -42 ms
Stream size : 327 MiB (8%)
Title : AC3 5.1 384kbps
Language : English
Service kind : Complete Main
Default : Yes
Forced : No

Text #1
ID : 3
Format : VobSub
Muxing mode : zlib
Codec ID : S_VOBSUB
Codec ID/Info : Picture based subtitle format used on DVDs
Duration : 1 h 54 min
Bit rate : 9 675 b/s
Count of elements : 1641
Stream size : 7.90 MiB (0%)
Title : Vobsub 1080p low
Language : Thai
Default : No
Forced : No

Text #2
ID : 4
Format : VobSub
Muxing mode : zlib
Codec ID : S_VOBSUB
Codec ID/Info : Picture based subtitle format used on DVDs
Duration : 1 h 54 min
Bit rate : 9 645 b/s
Count of elements : 1641
Stream size : 7.87 MiB (0%)
Title : Vobsub 1080p
Language : Thai
Default : No
Forced : No

Text #3
ID : 5
Format : PGS
Muxing mode : zlib
Codec ID : S_HDMV/PGS
Codec ID/Info : Picture based subtitle format used on BDs/HD-DVDs
Duration : 1 h 54 min
Bit rate : 44.1 kb/s
Count of elements : 3282
Stream size : 36.0 MiB (1%)
Title : PGS low
Language : Thai
Default : No
Forced : No

Text #4
ID : 6
Format : PGS
Muxing mode : zlib
Codec ID : S_HDMV/PGS
Codec ID/Info : Picture based subtitle format used on BDs/HD-DVDs
Duration : 1 h 54 min
Bit rate : 44.1 kb/s
Count of elements : 3282
Stream size : 36.0 MiB (1%)
Title : PGS
Language : Thai
Default : No
Forced : No

Text #5
ID : 7
Format : UTF-8
Codec ID : S_TEXT/UTF8
Codec ID/Info : UTF-8 Plain Text
Duration : 1 h 53 min
Bit rate : 67 b/s
Count of elements : 1431
Stream size : 56.2 KiB (0%)
Title : Subrip
Language : English
Default : No
Forced : No



หมายเหตุ ทุกเว็บโหลดแทนกันได้ แต่ต้องเปลี่ยนชื่อให้เรียงกันด้วย

สำหรับสมาชิก VIP เท่านั้น!

[restrict …]

|——————————————————————|

|——————————————————————|

[/restrict]