Home > Mini-HD > [MINI-HD 1080P] Live by Night (2016) ลีฟ บาย ไนท์ [พากย์ไทยโรง] [MKV] [ONE2UP]

[MINI-HD 1080P] Live by Night (2016) ลีฟ บาย ไนท์ [พากย์ไทยโรง] [MKV] [ONE2UP]

[MINI-HD 1080P] Live by Night (2016) ลีฟ บาย ไนท์

เล่าเรื่องราวในยุค 1920 ผ่านตัวเอกอย่าง โจ คัฟลิน (เบน แอฟเฟล็ค) ลูกชายของนายตำรวจใหญ่แห่งเมืองบอสตัน ที่เลือกเดินเส้นทางสายอาชญากร อย่างไรก็ตามโจกลับทำผิดกฎของเหล่ามาเฟีย เมื่อเขาขโมยทั้งเงินและผู้หญิงของหัวหน้าใหญ่มาครอง จนความสัมพันธ์ของเขาจบลงด้วยโศกนาฏกรรม ซึ่งหลังจากนั้นชีวิตของโจก็เต็มไปด้วยการแก้แค้น ความทะเยอะทะยาน ความรัก และการหักหลังที่พาเขาเดินทางออกจากบอสตันสู่ฟลอริด้า

Live by Night (2016)[Load2up.com].mp4
Format : MPEG-4
Format profile : Base Media / Version 2
Codec ID : mp42 (isom/mp42)
File size : 1.87 GiB
Duration : 2 h 8 min
Overall bit rate mode : Variable
Overall bit rate : 2 073 kb/s
Encoded date : UTC 2017-01-28 06:11:03
Tagged date : UTC 2017-01-28 06:11:03
gsst : 0
gstd : 7727763

Video
ID : 1
Format : AVC
Format/Info : Advanced Video Codec
Format profile : [email protected]
Format settings, CABAC : Yes
Format settings, ReFrames : 1 frame
Format settings, GOP : M=1, N=48
Codec ID : avc1
Codec ID/Info : Advanced Video Coding
Duration : 2 h 8 min
Bit rate : 1 879 kb/s
Maximum bit rate : 7 178 kb/s
Width : 1 920 pixels
Height : 768 pixels
Display aspect ratio : 2.500
Frame rate mode : Variable
Frame rate : 23.870 FPS
Minimum frame rate : 8.000 FPS
Maximum frame rate : 24.000 FPS
Color space : YUV
Chroma subsampling : 4:2:0
Bit depth : 8 bits
Scan type : Progressive
Bits/(Pixel*Frame) : 0.053
Stream size : 1.69 GiB (91%)
Tagged date : UTC 2017-01-28 06:14:55
Color range : Limited
Color primaries : BT.709
Transfer characteristics : BT.709
Matrix coefficients : BT.709

Audio
ID : 2
Format : AAC
Format/Info : Advanced Audio Codec
Format profile : LC
Codec ID : 40
Duration : 2 h 8 min
Bit rate mode : Variable
Bit rate : 192 kb/s
Maximum bit rate : 201 kb/s
Channel(s) : 2 channels
Channel positions : Front: L R
Sampling rate : 44.1 kHz
Frame rate : 43.066 FPS (1024 spf)
Compression mode : Lossy
Stream size : 177 MiB (9%)
Title : IsoMedia File Produced by Google, 5-11-2011
Encoded date : UTC 2017-01-28 06:13:36
Tagged date : UTC 2017-01-28 06:14:55



หมายเหตุ ทุกเว็บโหลดแทนกันได้ แต่ต้องเปลี่ยนชื่อให้เรียงกันด้วย

(Visited 998 times, 1 visits today)