Home > Mini-HD > [MINI-HD 1080P] Kingsman: The Golden Circle (2017) คิงส์แมน รวมพลังโคตรพยัคฆ์ [พากย์ไทยโรง + อังกฤษ 5.1] [MKV] [ONE2UP]

[MINI-HD 1080P] Kingsman: The Golden Circle (2017) คิงส์แมน รวมพลังโคตรพยัคฆ์ [พากย์ไทยโรง + อังกฤษ 5.1] [MKV] [ONE2UP]

[MINI-HD 1080P] Kingsman: The Golden Circle (2017) คิงส์แมน รวมพลังโคตรพยัคฆ์

Kingsman: The Golden Circle เมื่อสำนักงานใหญ่ Kingsman ทั่วโลกของเหล่าสายลับถูกทำลายลง และเหล่าผู้ก่อการร้ายได้เริ่มวางแผนการก่อความวุ่นวายครั้งใหม่ ทำให้เหล่าสายลับ Kingsman ต้องร่วมมือกับองค์กรสายลับพันธมิตรจากสหรัฐอเมริกา เพื่อขัดขวางแผนการร้ายของเหล่าผู้ก่อการร้าย

Kingsman_The.Golden.Circle.2017.1080p.WEB-DL.DD5.1.H.264_ThaiRong2.0[Load2up.com].mkv
Format : Matroska
Format version : Version 2
File size : 5.05 GiB
Duration : 2 h 21 min
Overall bit rate : 5 117 kb/s
Movie name : Kingsman.The.Golden.Circle.2017.1080p.WEB-DL.DD5.1.H.264-FGT
Encoded date : UTC 2017-11-26 17:29:41
Writing application : mkvmerge v5.7.0 (‘The Whirlwind’) built on Jul 8 2012 20:08:51
Writing library : libebml v1.2.3 + libmatroska v1.3.0
Cover : Yes
Attachments : cover_land.jpg / small_cover.jpg / small_cover_land.jpg / cover.jpg

Video
ID : 1
Format : AVC
Format/Info : Advanced Video Codec
Format profile : [email protected]
Format settings, CABAC : Yes
Format settings, ReFrames : 5 frames
Muxing mode : Header stripping
Codec ID : V_MPEG4/ISO/AVC
Duration : 2 h 21 min
Bit rate : 4 439 kb/s
Width : 1 920 pixels
Height : 802 pixels
Display aspect ratio : 2.40:1
Frame rate mode : Constant
Frame rate : 23.976 (24000/1001) FPS
Color space : YUV
Chroma subsampling : 4:2:0
Bit depth : 8 bits
Scan type : Progressive
Bits/(Pixel*Frame) : 0.120
Stream size : 4.38 GiB (87%)
Title : Kingsman_The.Golden.Circle.2017.1080p.WEB-DL.DD5.1.H.264_ThaiRong2.0
Language : English
Default : Yes
Forced : No
Color range : Limited
Color primaries : BT.709
Transfer characteristics : BT.709
Matrix coefficients : BT.709
Statistics Tags Issue : mkvmerge v18.0.0 (‘Apricity’) 32-bit 2017-11-26 08:56:59 / mkvmerge v5.7.0 (‘The Whirlwind’) built on Jul 8 2012 20:08:51 2017-11-26 17:29:41
FromStats_BitRate : 4540910
FromStats_Duration : 02:21:12.472000000
FromStats_FrameCount : 203136
FromStats_StreamSize : 4809092141

Audio #1
ID : 2
Format : AC-3
Format/Info : Audio Coding 3
Format settings, Endianness : Big
Muxing mode : Header stripping
Codec ID : A_AC3
Duration : 2 h 21 min
Bit rate mode : Constant
Bit rate : 192 kb/s
Channel(s) : 2 channels
Channel positions : Front: L R
Sampling rate : 48.0 kHz
Frame rate : 31.250 FPS (1536 spf)
Bit depth : 16 bits
Compression mode : Lossy
Delay relative to video : -43 ms
Stream size : 194 MiB (4%)
Title : ThaiRong2.0
Language : Thai
Service kind : Complete Main
Default : No
Forced : No
Statistics Tags Issue : mkvmerge v18.0.0 (‘Apricity’) 32-bit 2017-11-26 08:56:59 / mkvmerge v5.7.0 (‘The Whirlwind’) built on Jul 8 2012 20:08:51 2017-11-26 17:29:41
FromStats_BitRate : 192000
FromStats_Duration : 02:21:00.544000000
FromStats_FrameCount : 264392
FromStats_StreamSize : 203053056

Audio #2
ID : 3
Format : AC-3
Format/Info : Audio Coding 3
Format settings, Endianness : Big
Muxing mode : Header stripping
Codec ID : A_AC3
Duration : 2 h 21 min
Bit rate mode : Constant
Bit rate : 384 kb/s
Channel(s) : 6 channels
Channel positions : Front: L C R, Side: L R, LFE
Sampling rate : 48.0 kHz
Frame rate : 31.250 FPS (1536 spf)
Bit depth : 16 bits
Compression mode : Lossy
Delay relative to video : -43 ms
Stream size : 388 MiB (8%)
Title : English
Language : English
Service kind : Complete Main
Default : Yes
Forced : No
Statistics Tags Issue : mkvmerge v18.0.0 (‘Apricity’) 32-bit 2017-11-26 08:56:59 / mkvmerge v5.7.0 (‘The Whirlwind’) built on Jul 8 2012 20:08:51 2017-11-26 17:29:41
FromStats_BitRate : 384000
FromStats_Duration : 02:21:00.512000000
FromStats_FrameCount : 264391
FromStats_StreamSize : 406104576



หมายเหตุ ทุกเว็บโหลดแทนกันได้ แต่ต้องเปลี่ยนชื่อให้เรียงกันด้วย

สำหรับสมาชิก VIP เท่านั้น!