Home > Mini-HD > [MINI-HD 1080P] How to Train Your Dragon: The Hidden World (2019) อภินิหารไวกิ้งพิชิตมังกร 3 [พากย์ไทยโรง 2.0 + เสียงอังกฤษ 2.0] [MKV]

[MINI-HD 1080P] How to Train Your Dragon: The Hidden World (2019) อภินิหารไวกิ้งพิชิตมังกร 3 [พากย์ไทยโรง 2.0 + เสียงอังกฤษ 2.0] [MKV]

[MINI-HD 1080P] How to Train Your Dragon: The Hidden World (2019) อภินิหารไวกิ้งพิชิตมังกร 3

How.to.Train.Your.Dragon.The.Hidden.World.2019.1080p.WEBRip.THR2.0.x264[Load2up,com].mkv
Format : Matroska
Format version : Version 4
File size : 3.61 GiB
Duration : 1 h 41 min
Overall bit rate : 5 100 kb/s
Movie name : How.to.Train.Your.D[email protected]CtHts
Encoded date : UTC 2019-03-29 11:17:47
Writing application : mkvmerge v9.9.0 (‘Pick Up’) 64bit
Writing library : libebml v1.3.4 + libmatroska v1.4.5

Video
ID : 1
Format : AVC
Format/Info : Advanced Video Codec
Format profile : [email protected]
Format settings : CABAC / 5 Ref Frames
Format settings, CABAC : Yes
Format settings, ReFrames : 5 frames
Codec ID : V_MPEG4/ISO/AVC
Duration : 1 h 41 min
Bit rate : 4 458 kb/s
Width : 1 920 pixels
Height : 816 pixels
Display aspect ratio : 2.35:1
Frame rate mode : Constant
Frame rate : 29.970 (30000/1001) FPS
Color space : YUV
Chroma subsampling : 4:2:0
Bit depth : 8 bits
Scan type : Progressive
Bits/(Pixel*Frame) : 0.095
Stream size : 3.16 GiB (87%)
Title : How.to.Train.Your.D[email protected]CtHts
Language : English
Default : Yes
Forced : No
Color range : Limited
Color primaries : BT.709
Transfer characteristics : BT.709
Matrix coefficients : BT.709

Audio #1
ID : 2
Format : AC-3
Format/Info : Audio Coding 3
Commercial name : Dolby Digital
Codec ID : A_AC3
Duration : 1 h 41 min
Bit rate mode : Constant
Bit rate : 384 kb/s
Channel(s) : 2 channels
Channel layout : L R
Sampling rate : 48.0 kHz
Frame rate : 31.250 FPS (1536 SPF)
Bit depth : 16 bits
Compression mode : Lossy
Delay relative to video : -1 ms
Stream size : 278 MiB (8%)
Title : ThaiRong 2.0 @ 384 kb/s By [email protected]
Language : Thai
Service kind : Complete Main
Default : Yes
Forced : Yes

Audio #2
ID : 3
Format : AAC LC
Format/Info : Advanced Audio Codec Low Complexity
Codec ID : A_AAC-2
Duration : 1 h 41 min
Bit rate : 256 kb/s
Channel(s) : 2 channels
Channel layout : L R
Sampling rate : 48.0 kHz
Frame rate : 46.875 FPS (1024 SPF)
Compression mode : Lossy
Delay relative to video : -1 ms
Stream size : 186 MiB (5%)
Title : English 2.0 @ 256 kb/s
Language : English
Default : No
Forced : No



หมายเหตุ ทุกเว็บโหลดแทนกันได้ แต่ต้องเปลี่ยนชื่อให้เรียงกันด้วย

สำหรับสมาชิก VIP เท่านั้น!

[restrict …]

|——————————————————————|

|——————————————————————|

[/restrict]