Home > Mini-HD > [MINI-HD 1080P] How it Ends (2018) หายนะวันสิ้นโลก (Netflix) [Soundtrack บรรยายไทย] [MKV] [ONE2UP]

[MINI-HD 1080P] How it Ends (2018) หายนะวันสิ้นโลก (Netflix) [Soundtrack บรรยายไทย] [MKV] [ONE2UP]

[MINI-HD 1080P] How it Ends (2018) หายนะวันสิ้นโลก

How.It.Ends.2018.1080p.NF.WEB-DL.DDP5.1[Load2up.com].mkv
Format : Matroska
Format version : Version 4 / Version 2
File size : 2.85 GiB
Duration : 1 h 53 min
Overall bit rate mode : Variable
Overall bit rate : 3 601 kb/s
Encoded date : UTC 2018-07-13 11:45:10
Writing application : mkvmerge v24.0.0 (‘Beyond The Pale’) 64-bit
Writing library : libebml v1.3.6 + libmatroska v1.4.9

Video
ID : 1
Format : AVC
Format/Info : Advanced Video Codec
Format profile : [email protected]
Format settings, CABAC : Yes
Format settings, ReFrames : 3 frames
Codec ID : V_MPEG4/ISO/AVC
Duration : 1 h 53 min
Bit rate mode : Variable
Bit rate : 3 160 kb/s
Maximum bit rate : 4 740 kb/s
Width : 1 920 pixels
Height : 1 080 pixels
Display aspect ratio : 16:9
Frame rate mode : Constant
Frame rate : 23.976 (24000/1001) FPS
Color space : YUV
Chroma subsampling : 4:2:0
Bit depth : 8 bits
Scan type : Progressive
Bits/(Pixel*Frame) : 0.064
Stream size : 2.48 GiB (87%)
Writing library : x264 core 148 r2715 7e75228
Default : Yes
Forced : No

Audio
ID : 2
Format : E-AC-3
Format/Info : Enhanced Audio Coding 3
Format profile : E-AC-3+Atmos / E-AC-3
Format settings, Endianness : Big
Codec ID : A_EAC3
Duration : 1 h 52 min
Bit rate mode : Constant
Bit rate : 448 kb/s
Channel(s) : 15 objects / 6 channels
Channel positions : 15 objects / Front: L C R, Side: L R, LFE
Sampling rate : 48.0 kHz
Frame rate : 187.500 FPS (256 spf)
Compression mode : Lossy
Stream size : 361 MiB (12%)
Title : English
Language : English
Service kind : Complete Main
Default : Yes
Forced : No

Text #1
ID : 3
Format : UTF-8
Codec ID : S_TEXT/UTF8
Codec ID/Info : UTF-8 Plain Text
Duration : 1 h 44 min
Bit rate : 43 b/s
Count of elements : 1040
Stream size : 33.3 KiB (0%)
Title : SDH
Language : English
Default : Yes
Forced : No

Text #2
ID : 4
Format : UTF-8
Codec ID : S_TEXT/UTF8
Codec ID/Info : UTF-8 Plain Text
Duration : 1 h 46 min
Bit rate : 98 b/s
Count of elements : 1058
Stream size : 77.3 KiB (0%)
Language : Thai
Default : No
Forced : No

Text #3
ID : 5
Format : PGS
Muxing mode : zlib
Codec ID : S_HDMV/PGS
Codec ID/Info : Picture based subtitle format used on BDs/HD-DVDs
Duration : 1 h 46 min
Bit rate : 28.6 kb/s
Count of elements : 2116
Stream size : 21.8 MiB (1%)
Language : Thai
Default : No
Forced : No



หมายเหตุ ทุกเว็บโหลดแทนกันได้ แต่ต้องเปลี่ยนชื่อให้เรียงกันด้วย

สำหรับสมาชิก VIP เท่านั้น!

[restrict …]

|——————————————————————|

|——————————————————————|

[/restrict]