Home > Mini-HD > [MINI-HD 1080P] God of War (2017) สมรภูมิประจัญบาน [พากย์ไทย] [MKV] [ONE2UP]

[MINI-HD 1080P] God of War (2017) สมรภูมิประจัญบาน [พากย์ไทย] [MKV] [ONE2UP]

[MINI-HD 1080P] God of War (2017) สมรภูมิประจัญบาน

God of War 2017 1080p.Bluray.x264[Load2up.com].mkv
Format : Matroska
Format version : Version 4 / Version 2
File size : 3.35 GiB
Duration : 2 h 8 min
Overall bit rate : 3 726 kb/s
Encoded date : UTC 2017-12-26 12:10:16
Writing application : mkvmerge v8.4.0 (‘A better way to fly’) 64bit
Writing library : libebml v1.3.1 + libmatroska v1.4.2

Video
ID : 1
Format : AVC
Format/Info : Advanced Video Codec
Format profile : [email protected]
Format settings, CABAC : Yes
Format settings, ReFrames : 1 frame
Codec ID : V_MPEG4/ISO/AVC
Duration : 2 h 8 min
Bit rate : 3 532 kb/s
Width : 1 920 pixels
Height : 804 pixels
Display aspect ratio : 2.40:1
Frame rate mode : Constant
Frame rate : 24.000 FPS
Color space : YUV
Chroma subsampling : 4:2:0
Bit depth : 8 bits
Scan type : Progressive
Bits/(Pixel*Frame) : 0.095
Stream size : 3.18 GiB (95%)
Title : God of War (2017)
Language : Chinese
Default : Yes
Forced : No
Color range : Limited
Color primaries : BT.709
Transfer characteristics : BT.709
Matrix coefficients : BT.709

Audio
ID : 2
Format : AAC
Format/Info : Advanced Audio Codec
Format profile : LC
Codec ID : A_AAC
Duration : 2 h 8 min
Bit rate : 192 kb/s
Channel(s) : 2 channels
Channel positions : Front: L R
Sampling rate : 44.1 kHz
Frame rate : 43.066 FPS (1024 spf)
Compression mode : Lossy
Stream size : 177 MiB (5%)
Title : By Meentada
Language : Thai
Default : Yes
Forced : No



หมายเหตุ ทุกเว็บโหลดแทนกันได้ แต่ต้องเปลี่ยนชื่อให้เรียงกันด้วย

สำหรับสมาชิก VIP เท่านั้น!

[restrict …]

|——————————————————————|

|——————————————————————|

[/restrict]