Home > Master > [MINI-HD 1080P] The Giver (2014) เดอะกิฟเวอร์ พลังพลิกโลก [พากย์ไทย+อังกฤษ] [SubThai+Eng] [MASTER] [MKV] [FILEFENIX] [ONE2UP]

[MINI-HD 1080P] The Giver (2014) เดอะกิฟเวอร์ พลังพลิกโลก [พากย์ไทย+อังกฤษ] [SubThai+Eng] [MASTER] [MKV] [FILEFENIX] [ONE2UP]

[MINI-HD 1080P] The Giver (2014) เดอะกิฟเวอร์ พลังพลิกโลก

THE GIVER ภาพยนตร์ที่นำเสนอเรื่องราวของ โจนาส (เบรนตัน ทเวทส์) เด็กหนุ่มผู้ใช้ชีวิตอยู่ในโลกที่ดูเหมือนจะสมบูรณ์แบบ และเต็มไปด้วยความมีระเบียบและความสุขแม้จะไร้ซึ่งสีสัน แต่เมื่อเขาเริ่มใช้เวลาอยู่กับผู้ให้ (เจฟฟ์ บริดเจส) ผู้เก็บรักษาความทรงจำทั้งมวลของชุมชนแห่งนี้ โจนาสก็ กลับเริ่มค้นพบความจริงที่สุดแสนจะอันตรายและมืดมม่นในอดีตที่ลึกลับในเมืองแห่งนี้ด้วยพลังจากสิ่งที่เขาได้เรียนรู้ ซึ่งเขาก็ตระหนักว่าความเสี่ยงนั้นมากกว่า ที่เขาจะจิตนาการไว้เสียอีก เพาะมันเป็นเรื่องความเป็นความตายสำหรับตัวเขาเองและคนที่เขารักมากที่สุด แม้จะมีโอกาสน้อยเพียงไหนแต่โจนาสก็รู้ว่าเขาจะทำทุกวิถีทางถึงต้องหลบหนีออกจากโลกใบนี้ให้ได้ เพื่อปกป้องทุกคนเขาก็จะทำมัน ซึ่งเป็นความท้าทายที่ไม่มีใครทำสำเร็จมาก่อน

The.Giver.2014.1080p.BluRay.DTS.x264.MASTER[Load2up.com].mkv
Format : Matroska
Format version : Version 4 / Version 2
File size : 3.45 GiB
Duration : 1 h 37 min
Overall bit rate : 5 082 kb/s
Movie name : The.Giver.2014.1080p.BluRay.DTS.x264.MASTER[Load2up.com] Encoded date : UTC 2015-04-03 11:31:33
Writing application : mkvmerge v7.2.0 (‘On Every Street’) 32bit built on Sep 13 2014 15:42:11
Writing library : libebml v1.3.0 + libmatroska v1.4.1
Cover : Yes
Attachments : cover_land.png / cover.png

Video
ID : 1
Format : AVC
Format/Info : Advanced Video Codec
Format profile : [email protected]
Format settings, CABAC : Yes
Format settings, ReFrames : 5 frames
Codec ID : V_MPEG4/ISO/AVC
Duration : 1 h 37 min
Bit rate : 3 750 kb/s
Width : 1 920 pixels
Height : 800 pixels
Display aspect ratio : 2.40:1
Frame rate mode : Constant
Frame rate : 23.976 (24000/1001) FPS
Color space : YUV
Chroma subsampling : 4:2:0
Bit depth : 8 bits
Scan type : Progressive
Bits/(Pixel*Frame) : 0.102
Stream size : 2.57 GiB (74%)
Title : The.Giver.2014.1080p.BluRay.DTS.x264.MASTER
Writing library : x264 core 142 r2431 ac76440
Language : English
Default : Yes
Forced : No

Audio #1
ID : 2
Format : AC-3
Format/Info : Audio Coding 3
Mode extension : CM (complete main)
Format settings, Endianness : Big
Codec ID : A_AC3
Duration : 1 h 37 min
Bit rate mode : Constant
Bit rate : 448 kb/s
Channel(s) : 6 channels
Channel positions : Front: L C R, Side: L R, LFE
Sampling rate : 48.0 kHz
Frame rate : 31.250 FPS (1536 spf)
Compression mode : Lossy
Stream size : 312 MiB (9%)
Title : AC3 DVD MASTER
Language : Thai
Default : Yes
Forced : Yes

Audio #2
ID : 3
Format : DTS
Format/Info : Digital Theater Systems
Mode : 16
Format settings, Endianness : Big
Codec ID : A_DTS
Duration : 1 h 37 min
Bit rate mode : Constant
Bit rate : 755 kb/s
Channel(s) : 6 channels
Channel positions : Front: L C R, Side: L R, LFE
Sampling rate : 48.0 kHz
Frame rate : 93.750 FPS (512 spf)
Bit depth : 24 bits
Compression mode : Lossy
Stream size : 525 MiB (15%)
Title : DTS 768
Language : English
Default : No
Forced : No

Text #1
ID : 4
Format : VobSub
Codec ID : S_VOBSUB
Codec ID/Info : Picture based subtitle format used on DVDs
Title : 1080P TSA
Language : Thai
Default : No
Forced : No

Text #2
ID : 5
Format : VobSub
Codec ID : S_VOBSUB
Codec ID/Info : Picture based subtitle format used on DVDs
Title : 1080P TSA YELLOW
Language : Thai
Default : No
Forced : No

Text #3
ID : 6
Format : VobSub
Codec ID : S_VOBSUB
Codec ID/Info : Picture based subtitle format used on DVDs
Title : 1080P TSA UNDER
Language : Thai
Default : No
Forced : No

Text #4
ID : 7
Format : VobSub
Codec ID : S_VOBSUB
Codec ID/Info : Picture based subtitle format used on DVDs
Title : 1080P AS
Language : Thai
Default : No
Forced : No

Text #5
ID : 8
Format : VobSub
Codec ID : S_VOBSUB
Codec ID/Info : Picture based subtitle format used on DVDs
Title : 480P FS
Language : Thai
Default : No
Forced : No

Text #6
ID : 9
Format : VobSub
Codec ID : S_VOBSUB
Codec ID/Info : Picture based subtitle format used on DVDs
Title : DVD MASTER
Language : Thai
Default : No
Forced : No

Text #7
ID : 10
Format : UTF-8
Codec ID : S_TEXT/UTF8
Codec ID/Info : UTF-8 Plain Text
Title : SRT OCR
Language : Thai
Default : No
Forced : No

Text #8
ID : 11
Format : UTF-8
Codec ID : S_TEXT/UTF8
Codec ID/Info : UTF-8 Plain Text
Title : SRT
Language : English
Default : No
Forced : No

Text #9
ID : 12
Format : PGS
Codec ID : S_HDMV/PGS
Codec ID/Info : Picture based subtitle format used on BDs/HD-DVDs
Title : TSA
Language : Thai
Default : No
Forced : No

Text #10
ID : 13
Format : PGS
Codec ID : S_HDMV/PGS
Codec ID/Info : Picture based subtitle format used on BDs/HD-DVDs
Title : TSA UNDER
Language : Thai
Default : No
Forced : No

Text #11
ID : 14
Format : PGS
Codec ID : S_HDMV/PGS
Codec ID/Info : Picture based subtitle format used on BDs/HD-DVDs
Title : AS
Language : Thai
Default : No
Forced : No



หมายเหตุ ทุกเว็บโหลดแทนกันได้ แต่ต้องเปลี่ยนชื่อให้เรียงกันด้วย



(Visited 2,756 times, 1 visits today)