Home > Mini-HD > [MINI-HD 1080P] Ghost House (2017) มันอยู่ในศาล [Sub English] [พากย์ไทยโรง] [MKV] [ONE2UP] [Filefenix]

[MINI-HD 1080P] Ghost House (2017) มันอยู่ในศาล [Sub English] [พากย์ไทยโรง] [MKV] [ONE2UP] [Filefenix]

[MINI-HD 1080P] Ghost House (2017) มันอยู่ในศาล

Ghost House สองคู่รักชาวอเมริกันที่หวังมาฮันนีมูนในประเทศไทยกลับต้องมาเผชิญความหลอนขั้นสุดตอนที่พวกเขาบังเอิญพบศาลพระภูมิลึกลับขณะท่องเที่ยวอยู่กลางชนบท พวกเขาถูกวิญญาณขึ้นชื่อว่าเฮี้ยนจัดตามหลอกหลอนทั้งคู่จนเกือบเสียสติ เมื่อสิ้นไร้ทางหนี สองคู่รักทำดิ่งลงสู่วังวนแห่งความสยองเกินกว่าจินตนาการ รับมือกับปรากฏการณ์ที่ไม่มีใครสามารถหาคำตอบได้เมื่อต้องเผชิญหน้ากับความชั่วร้ายที่จะทำให้คุณฝันร้ายไปตลอดกาล

Ghost.House.2017.1080p.WEB-DL.ThaiRong5.1.H264[Load2up.com].mkv
Format : Matroska
Format version : Version 4 / Version 2
File size : 4.01 GiB
Duration : 1 h 39 min
Overall bit rate : 5 746 kb/s
Movie name : Ghost.House.2017.1080p.WEB-DL.ThaiRong5.1.H264
Encoded date : UTC 2017-08-27 10:08:30
Writing application : mkvmerge v9.9.0 (‘Pick Up’) 64bit
Writing library : libebml v1.3.4 + libmatroska v1.4.5

Video
ID : 1
Format : AVC
Format/Info : Advanced Video Codec
Format profile : [email protected]
Format settings, CABAC : Yes
Format settings, ReFrames : 5 frames
Codec ID : V_MPEG4/ISO/AVC
Duration : 1 h 39 min
Bit rate : 4 594 kb/s
Width : 1 920 pixels
Height : 792 pixels
Display aspect ratio : 2.40:1
Frame rate mode : Constant
Frame rate : 23.976 (23976/1000) FPS
Color space : YUV
Chroma subsampling : 4:2:0
Bit depth : 8 bits
Scan type : Progressive
Bits/(Pixel*Frame) : 0.126
Stream size : 3.21 GiB (80%)
Title : Ghost.House.2017.1080p.WEB-DL.ThaiRong5.1.H264
Language : English
Default : Yes
Forced : No
Color range : Limited
Color primaries : BT.709
Transfer characteristics : BT.709
Matrix coefficients : BT.709

Audio #1
ID : 2
Format : AC-3
Format/Info : Audio Coding 3
Format settings, Endianness : Big
Codec ID : A_AC3
Duration : 1 h 39 min
Bit rate mode : Constant
Bit rate : 448 kb/s
Channel(s) : 6 channels
Channel positions : Front: L C R, Side: L R, LFE
Sampling rate : 48.0 kHz
Frame rate : 31.250 FPS (1536 spf)
Bit depth : 16 bits
Compression mode : Lossy
Delay relative to video : -42 ms
Stream size : 320 MiB (8%)
Title : ThaiRong 5.1 AC-3
Language : Thai
Service kind : Complete Main
Default : Yes
Forced : No

Audio #2
ID : 3
Format : AAC
Format/Info : Advanced Audio Codec
Format profile : LC
Codec ID : A_AAC
Duration : 1 h 39 min
Bit rate : 317 kb/s
Channel(s) : 2 channels
Channel positions : Front: L R
Sampling rate : 48.0 kHz
Frame rate : 46.875 FPS (1024 spf)
Compression mode : Lossy
Delay relative to video : -42 ms
Stream size : 227 MiB (6%)
Title : ThaiRong 2.0 AAC
Language : Thai
Default : No
Forced : No

Audio #3
ID : 4
Format : AC-3
Format/Info : Audio Coding 3
Format settings, Endianness : Big
Codec ID : A_AC3
Duration : 1 h 39 min
Bit rate mode : Constant
Bit rate : 384 kb/s
Channel(s) : 6 channels
Channel positions : Front: L C R, Side: L R, LFE
Sampling rate : 48.0 kHz
Frame rate : 31.250 FPS (1536 spf)
Bit depth : 16 bits
Compression mode : Lossy
Delay relative to video : -42 ms
Stream size : 274 MiB (7%)
Title : English DD5.1 AC-3
Language : English
Service kind : Complete Main
Default : No
Forced : No

Text
ID : 5
Format : UTF-8
Codec ID : S_TEXT/UTF8
Codec ID/Info : UTF-8 Plain Text
Duration : 1 h 32 min
Bit rate : 32 b/s
Count of elements : 908
Stream size : 21.9 KiB (0%)
Title : English
Language : English
Default : No
Forced : No



หมายเหตุ ทุกเว็บโหลดแทนกันได้ แต่ต้องเปลี่ยนชื่อให้เรียงกันด้วย

Cloud2free

สำหรับสมาชิก VIP เท่านั้น!

[restrict …]

|——————————————————————|

|——————————————————————|

[/restrict]

(Visited 1,878 times, 3 visits today)