Home > Mini-HD > [MINI-HD 1080P] Geostorm (2017) จีโอสตอร์ม เมฆาถล่มโลก [พากย์ไทยโรง + อังกฤษ 5.1] [ซับอังกฤษ] [MKV] [ONE2UP]

[MINI-HD 1080P] Geostorm (2017) จีโอสตอร์ม เมฆาถล่มโลก [พากย์ไทยโรง + อังกฤษ 5.1] [ซับอังกฤษ] [MKV] [ONE2UP]

[MINI-HD 1080P] Geostorm (2017) จีโอสตอร์ม เมฆาถล่มโลก

Geostorm เรื่องราวสุดระทึกเกิดขึ้นเมื่อดาวเทียมควบคุมภูมิอากาศของโลกเกิดความเสียหาย จนทำให้สภาพอากาศทั่วโลกแปรปรวนถึงขีดสุด แต่เมื่อชายสองพี่น้องเดินทางขึ้นไปซ่อมแซมดาวเทียมในอวกาศ สิ่งที่พวกเขาค้นพบคือแผนการลอบสังหารประธานาธิบดีสหรัฐฯ ที่ซ่อนอยู่เบื้องหลังหายนะครั้งนี้

Geostorm.2017.1080p.WEB-DL.X264.THR.AC3[Load2up.com].mkv
Format : Matroska
Format version : Version 4 / Version 2
File size : 4.43 GiB
Duration : 1 h 49 min
Overall bit rate : 5 811 kb/s
Movie name : [enthdmovieclub]Geostorm.2017.1080p.WEB-DL.X264.AC3
Writing application : mkvmerge v18.0.0 (‘Apricity’) 64-bit
Writing library : libebml v1.3.5 + libmatroska v1.4.8
Cover : Yes
Attachments : cover.jpg

Video
ID : 1
Format : AVC
Format/Info : Advanced Video Codec
Format profile : [email protected]
Format settings, CABAC : Yes
Format settings, ReFrames : 4 frames
Codec ID : V_MPEG4/ISO/AVC
Duration : 1 h 49 min
Bit rate : 4 982 kb/s
Width : 1 916 pixels
Height : 800 pixels
Display aspect ratio : 2.40:1
Frame rate mode : Constant
Frame rate : 23.976 (24000/1001) FPS
Color space : YUV
Chroma subsampling : 4:2:0
Bit depth : 8 bits
Scan type : Progressive
Bits/(Pixel*Frame) : 0.136
Stream size : 3.79 GiB (86%)
Title : @@Present by [email protected]@
Writing library : x264 core 130 r2273 b3065e6
Language : English
Default : Yes
Forced : No
Color range : Limited
Color primaries : BT.709
Transfer characteristics : BT.709
Matrix coefficients : BT.709

Audio #1
ID : 2
Format : AC-3
Format/Info : Audio Coding 3
Format settings, Endianness : Big
Codec ID : A_AC3
Duration : 1 h 48 min
Bit rate mode : Constant
Bit rate : 448 kb/s
Channel(s) : 2 channels
Channel positions : Front: L R
Sampling rate : 48.0 kHz
Frame rate : 31.250 FPS (1536 spf)
Bit depth : 16 bits
Compression mode : Lossy
Delay relative to video : 4 s 0 ms
Stream size : 346 MiB (8%)
Title : Thai Rong
Language : Thai
Service kind : Complete Main
Default : Yes
Forced : Yes

Audio #2
ID : 3
Format : AC-3
Format/Info : Audio Coding 3
Format settings, Endianness : Big
Codec ID : A_AC3
Duration : 1 h 49 min
Bit rate mode : Constant
Bit rate : 384 kb/s
Channel(s) : 6 channels
Channel positions : Front: L C R, Side: L R, LFE
Sampling rate : 48.0 kHz
Frame rate : 31.250 FPS (1536 spf)
Bit depth : 16 bits
Compression mode : Lossy
Stream size : 300 MiB (7%)
Title : Eng AC3 5.1
Language : English
Service kind : Complete Main
Default : No
Forced : No

Text
ID : 4
Format : UTF-8
Codec ID : S_TEXT/UTF8
Codec ID/Info : UTF-8 Plain Text
Duration : 1 h 41 min
Bit rate : 70 b/s
Count of elements : 1670
Stream size : 52.3 KiB (0%)
Title : Eng
Language : English
Default : Yes
Forced : No



หมายเหตุ ทุกเว็บโหลดแทนกันได้ แต่ต้องเปลี่ยนชื่อให้เรียงกันด้วย

สำหรับสมาชิก VIP เท่านั้น!

[restrict …]

|——————————————————————|

|——————————————————————|

[/restrict]