Home > Mini-HD > [MINI-HD 1080P] Finding Dory (2016) ผจญภัยดอรี่ขี้ลืม [พากย์ไทย5.1+อังกฤษDTS] [บรรยายไทย+อังกฤษ] [MKV] [ONE2UP]

[MINI-HD 1080P] Finding Dory (2016) ผจญภัยดอรี่ขี้ลืม [พากย์ไทย5.1+อังกฤษDTS] [บรรยายไทย+อังกฤษ] [MKV] [ONE2UP]

[MINI-HD 1080P] Finding Dory (2016) ผจญภัยดอรี่ขี้ลืม

Finding Dory ผจญภัยดอรี่ขี้ลืม การกลับมาของแอนิเมชั่น Finding Dory เล่าเรื่องราว 6 เดือนหลังจากตอนจบของ Finding Nemo โดยปลาสาวขี้ลืมอย่าง โดรี ยังเป็นปลาที่ใช้ชีวิตอย่างสงบสุขและว่ายน้ำกับเหล่าปลาการ์ตูนไปวัน ๆ แต่หลังจากที่เธอออกไปทัศนศึกษากับ นีโม และเฝ้ามองฝูงปลากระเบนราหูย้ายถิ่นฐานกลับบ้าน มันกลับทำให้เธอเริ่มคิดถึงบ้านขึ้นมาเสียอย่างนั้น กลายเป็นจุดเริ่มต้นให้เธอเสาะหาความจริงว่าตัวเองมาจากไหนกันแน่

Finding.Dory.2016.1080p.SuperHQ.DTS.x264.BD[Load2up.com].mkv
Format : Matroska
Format version : Version 4 / Version 2
File size : 3.86 GiB
Duration : 1 h 37 min
Overall bit rate mode : Variable
Overall bit rate : 5 701 kb/s
Movie name : Finding.Dory.2016.1080p.SuperHQ.DTS.x264.BD[Load2up.com] Encoded date : UTC 2016-12-26 15:55:57
Writing application : mkvmerge v9.5.0 (‘Quiet Fire’) 32bit
Writing library : libebml v1.3.4 + libmatroska v1.4.5

Video
ID : 1
Format : AVC
Format/Info : Advanced Video Codec
Format profile : [email protected]
Format settings, CABAC : Yes
Format settings, ReFrames : 4 frames
Codec ID : V_MPEG4/ISO/AVC
Duration : 1 h 37 min
Bit rate mode : Variable
Bit rate : 4 192 kb/s
Maximum bit rate : 62.5 Mb/s
Width : 1 920 pixels
Height : 1 080 pixels
Display aspect ratio : 16:9
Frame rate mode : Constant
Frame rate : 23.976 (24000/1001) FPS
Color space : YUV
Chroma subsampling : 4:2:0
Bit depth : 8 bits
Scan type : Progressive
Bits/(Pixel*Frame) : 0.084
Stream size : 2.84 GiB (74%)
Title : Finding.Dory.2016.1080p.SuperHQ.DTS.x264.BD
Writing library : x264 core 130 r2273 b3065e6
Language : English
Default : Yes
Forced : Yes

Audio #1
ID : 2
Format : AC-3
Format/Info : Audio Coding 3
Mode extension : CM (complete main)
Format settings, Endianness : Big
Codec ID : A_AC3
Duration : 1 h 37 min
Bit rate mode : Constant
Bit rate : 640 kb/s
Channel(s) : 6 channels
Channel positions : Front: L C R, Side: L R, LFE
Sampling rate : 48.0 kHz
Frame rate : 31.250 FPS (1536 spf)
Bit depth : 16 bits
Compression mode : Lossy
Stream size : 444 MiB (11%)
Title : TH AC3 BD
Language : Thai
Default : Yes
Forced : Yes

Audio #2
ID : 3
Format : DTS
Format/Info : Digital Theater Systems
Mode : 16
Format settings, Endianness : Big
Codec ID : A_DTS
Duration : 1 h 37 min
Bit rate mode : Constant
Bit rate : 755 kb/s
Channel(s) : 6 channels
Channel positions : Front: L C R, Side: L R, LFE
Sampling rate : 48.0 kHz
Frame rate : 93.750 FPS (512 spf)
Bit depth : 24 bits
Compression mode : Lossy
Stream size : 524 MiB (13%)
Title : EN DTS
Language : English
Default : No
Forced : No

Text #1
ID : 4
Format : VobSub
Codec ID : S_VOBSUB
Codec ID/Info : Picture based subtitle format used on DVDs
Title : TH 1080P
Language : Thai
Default : No
Forced : No

Text #2
ID : 5
Format : VobSub
Codec ID : S_VOBSUB
Codec ID/Info : Picture based subtitle format used on DVDs
Title : TH 1080P YELLOW
Language : Thai
Default : No
Forced : No

Text #3
ID : 6
Format : VobSub
Codec ID : S_VOBSUB
Codec ID/Info : Picture based subtitle format used on DVDs
Title : TH 480P
Language : Thai
Default : No
Forced : No

Text #4
ID : 7
Format : UTF-8
Codec ID : S_TEXT/UTF8
Codec ID/Info : UTF-8 Plain Text
Title : TH SRT ITUNES
Language : Thai
Default : No
Forced : No

Text #5
ID : 8
Format : PGS
Codec ID : S_HDMV/PGS
Codec ID/Info : Picture based subtitle format used on BDs/HD-DVDs
Title : TH BD MASTER
Language : Thai
Default : Yes
Forced : Yes

Text #6
ID : 9
Format : PGS
Codec ID : S_HDMV/PGS
Codec ID/Info : Picture based subtitle format used on BDs/HD-DVDs
Title : EN BD
Language : English
Default : No
Forced : No



หมายเหตุ ทุกเว็บโหลดแทนกันได้ แต่ต้องเปลี่ยนชื่อให้เรียงกันด้วย