Home > Mini-HD > [MINI-HD 1080P] Escape Plan 2: Hades (2018) แหกคุกมหาประลัย 2 [เสียงไทยโรง 2.0 + เสียงอังกฤษ 5.1] [MKV] [ONE2UP]

[MINI-HD 1080P] Escape Plan 2: Hades (2018) แหกคุกมหาประลัย 2 [เสียงไทยโรง 2.0 + เสียงอังกฤษ 5.1] [MKV] [ONE2UP]

[MINI-HD 1080P] Escape Plan 2: Hades (2018) แหกคุกมหาประลัย 2

Escape.Plan.2.Hades.2018.1080p.BluRay.H264.AAC.THR2.0[Load2up.com].mkv
Format : Matroska
Format version : Version 4 / Version 2
File size : 1.91 GiB
Duration : 1 h 33 min
Overall bit rate : 2 916 kb/s
Encoded date : UTC 2018-06-23 13:43:17
Writing application : mkvmerge v23.0.0 (‘The Bride Said No’) 64-bit
Writing library : libebml v1.3.6 + libmatroska v1.4.9

Video
ID : 1
Format : AVC
Format/Info : Advanced Video Codec
Format profile : [email protected]
Format settings, CABAC : Yes
Format settings, ReFrames : 4 frames
Codec ID : V_MPEG4/ISO/AVC
Duration : 1 h 33 min
Bit rate : 2 500 kb/s
Width : 1 920 pixels
Height : 804 pixels
Display aspect ratio : 2.40:1
Frame rate mode : Constant
Frame rate : 23.976 (23976/1000) FPS
Color space : YUV
Chroma subsampling : 4:2:0
Bit depth : 8 bits
Scan type : Progressive
Bits/(Pixel*Frame) : 0.068
Stream size : 1.63 GiB (86%)
Title : Escape.Plan.2.Hades.2018.1080p.BluRay.H264.AAC.THR2.0
Writing library : x264 core 152 r2851M ba24899
Default : Yes
Forced : No

Audio #1
ID : 2
Format : AAC
Format/Info : Advanced Audio Codec
Format profile : LC
Codec ID : A_AAC
Duration : 1 h 33 min
Bit rate : 192 kb/s
Channel(s) : 2 channels
Channel positions : Front: L R
Sampling rate : 48.0 kHz
Frame rate : 46.875 FPS (1024 spf)
Compression mode : Lossy
Delay relative to video : -43 ms
Stream size : 128 MiB (7%)
Title : Thai Rong 2.0
Language : Thai
Default : Yes
Forced : No

Audio #2
ID : 3
Format : AAC
Format/Info : Advanced Audio Codec
Format profile : LC
Codec ID : A_AAC
Duration : 1 h 33 min
Bit rate : 224 kb/s
Channel(s) : 6 channels
Channel positions : Front: L C R, Side: L R, LFE
Sampling rate : 48.0 kHz
Frame rate : 46.875 FPS (1024 spf)
Compression mode : Lossy
Delay relative to video : -43 ms
Stream size : 150 MiB (8%)
Title : English 5.1
Language : English
Default : No
Forced : No



หมายเหตุ ทุกเว็บโหลดแทนกันได้ แต่ต้องเปลี่ยนชื่อให้เรียงกันด้วย

สำหรับสมาชิก VIP เท่านั้น!

[restrict …]

|——————————————————————|

|——————————————————————|

[/restrict]