Home > Master > [MINI-HD 1080P] Dragon Ball Super: Broly (2018) ดราก้อนบอล ซูเปอร์: โบรลี่ [พากย์ไทย 5.1 + เสียงญี่ปุ่น 5.1] [บรรยาย อังกฤษ] [เสียงไทย From MASTER] [MASTER] [MKV] [ONE2UP]

[MINI-HD 1080P] Dragon Ball Super: Broly (2018) ดราก้อนบอล ซูเปอร์: โบรลี่ [พากย์ไทย 5.1 + เสียงญี่ปุ่น 5.1] [บรรยาย อังกฤษ] [เสียงไทย From MASTER] [MASTER] [MKV] [ONE2UP]

[MINI-HD 1080P] Dragon Ball Super: Broly (2018) ดราก้อนบอล ซูเปอร์: โบรลี่

{MINI Super-HQ}_Dragon.Ball.Super.Broly.2018.1080p.BrRip.AC3.x264[Load2up.com].mkv
Format : Matroska
Format version : Version 4
File size : 3.77 GiB
Duration : 1 h 41 min
Overall bit rate : 5 317 kb/s
Movie name : {MINI Super-HQ}_Dragon.Ball.Super.Broly.2018.1080p.BrRip.AC3.x264
Encoded date : UTC 2010-02-22 21:41:31
Writing application : mkvmerge v5.9.0 (‘On The Loose’) built on Dec 9 2012 15:37:01
Writing library : libebml v1.3.0 + libmatroska v1.4.0

Video
ID : 1
Format : AVC
Format/Info : Advanced Video Codec
Format profile : [email protected]
Format settings : CABAC / 4 Ref Frames
Format settings, CABAC : Yes
Format settings, ReFrames : 4 frames
Codec ID : V_MPEG4/ISO/AVC
Duration : 1 h 41 min
Bit rate : 4 404 kb/s
Width : 1 920 pixels
Height : 1 080 pixels
Display aspect ratio : 16:9
Frame rate mode : Constant
Frame rate : 24.000 FPS
Color space : YUV
Chroma subsampling : 4:2:0
Bit depth : 8 bits
Scan type : Progressive
Bits/(Pixel*Frame) : 0.088
Stream size : 3.06 GiB (81%)
Title : {MINI Super-HQ}_Dragon.Ball.Super.Broly.2018.1080p.BrRip.AC3.x264
Writing library : x264 core 130 r2273 b3065e6
Language : Japanese
Default : Yes
Forced : No
Color range : Limited
Color primaries : BT.709
Transfer characteristics : BT.709
Matrix coefficients : BT.709

Audio #1
ID : 2
Format : AC-3
Format/Info : Audio Coding 3
Commercial name : Dolby Digital
Codec ID : A_AC3
Duration : 1 h 41 min
Bit rate mode : Constant
Bit rate : 448 kb/s
Channel(s) : 6 channels
Channel layout : L R C LFE Ls Rs
Sampling rate : 48.0 kHz
Frame rate : 31.250 FPS (1536 SPF)
Bit depth : 16 bits
Compression mode : Lossy
Stream size : 325 MiB (8%)
Title : Thai DVD Master
Language : Thai
Service kind : Complete Main
Default : Yes
Forced : Yes

Audio #2
ID : 3
Format : AC-3
Format/Info : Audio Coding 3
Commercial name : Dolby Digital
Codec ID : A_AC3
Duration : 1 h 41 min
Bit rate mode : Constant
Bit rate : 448 kb/s
Channel(s) : 6 channels
Channel layout : L R C LFE Ls Rs
Sampling rate : 48.0 kHz
Frame rate : 31.250 FPS (1536 SPF)
Bit depth : 16 bits
Compression mode : Lossy
Stream size : 325 MiB (8%)
Title : Japanese 5.1
Language : Japanese
Service kind : Complete Main
Default : No
Forced : No

Text
ID : 4
Format : PGS
Codec ID : S_HDMV/PGS
Codec ID/Info : Picture based subtitle format used on BDs/HD-DVDs
Title : English
Language : English
Default : No
Forced : No



หมายเหตุ ทุกเว็บโหลดแทนกันได้ แต่ต้องเปลี่ยนชื่อให้เรียงกันด้วย

สำหรับสมาชิก VIP เท่านั้น!

[restrict …]

|——————————————————————|

|——————————————————————|

[/restrict]