Home > Mini-HD > [MINI-HD 1080P] DETECTIVE CONAN: CRIMSON LOVE LETTER (2017) ยอดนักสืบจิ๋ว โคนัน : ปริศนาเพลงกลอน ซ่อนรัก [พากย์ไทย 2.0 + ญี่ปุ่น 2.0] [บรรยายอังกฤษ] [MKV] [ONE2UP]

[MINI-HD 1080P] DETECTIVE CONAN: CRIMSON LOVE LETTER (2017) ยอดนักสืบจิ๋ว โคนัน : ปริศนาเพลงกลอน ซ่อนรัก [พากย์ไทย 2.0 + ญี่ปุ่น 2.0] [บรรยายอังกฤษ] [MKV] [ONE2UP]

[MINI-HD 1080P] DETECTIVE CONAN: CRIMSON LOVE LETTER (2017) ยอดนักสืบจิ๋ว โคนัน : ปริศนาเพลงกลอน ซ่อนรัก

Detective Conan: Crimson Love Letter เมื่อเกิดวินาศกรรมที่สถานีโทรทัศน์ นิชิอูริในโอซาก้า ขณะถ่ายทอดสดการแถลงข่าวแข่งขันไพ่กลอน “คารุตะ” พร้อมเหตุฆาตกรรมแชมปไพ่กลอนที่เมืองเกียวโต อันเกี่ยวพันกับบุคคลปริศนาทั้ง โอวกะ โมมิจิ เซียนไพ่คารุตะมัธยมปลายที่มาขอท้า โทยามะ คาซึฮะ แข่งกลอนไพ่พิชิตใจ ฮัตโตริ เฮย์จิ นักสืบหนุ่มที่ล่วงรู้ตัวตนของโคนัน ไม่เพียงเท่านั้นโคนันและเฮย์จิยังต้องเผชิญปริศนาจากฆาตกรที่ส่งรูปไพ่คารุตะให้เหยื่อรายต่อไปทางอีเมล งานนี้เพวกเขาต้องคลี่คลายปริศนาก่อนกลอนบทสุดท้ายจะกลายเป็นไพ่ตัดสินความตายของเหยื่อรายต่อไป

Detective.Conan.21.Crimson.Love.Letter.2017.1080p.HDRip.H264[Load2up.com].mkv
Format : Matroska
Format version : Version 4 / Version 2
File size : 3.88 GiB
Duration : 1 h 52 min
Overall bit rate : 4 940 kb/s
Movie name : D[email protected]CtHts
Encoded date : UTC 2017-10-31 16:02:12
Writing application : mkvmerge v9.9.0 (‘Pick Up’) 64bit
Writing library : libebml v1.3.4 + libmatroska v1.4.5
Cover : Yes
IsTruncated : Yes
Attachments : cover.jpg

Video
ID : 1
Format : AVC
Format/Info : Advanced Video Codec
Format profile : [email protected]
Format settings, CABAC : Yes
Format settings, ReFrames : 4 frames
Codec ID : V_MPEG4/ISO/AVC
Duration : 1 h 52 min
Bit rate : 4 617 kb/s
Width : 1 920 pixels
Height : 1 080 pixels
Display aspect ratio : 16:9
Frame rate mode : Constant
Frame rate : 23.976 (24000/1001) FPS
Color space : YUV
Chroma subsampling : 4:2:0
Bit depth : 8 bits
Scan type : Progressive
Bits/(Pixel*Frame) : 0.093
Stream size : 3.62 GiB (93%)
Title : Detective.Conan.[email protected]
Writing library : x264 core 146 r2538 121396c
Encoding settings : cabac=1 / ref=3 / deblock=1:0:0 / analyse=0x3:0x133 / me=hex / subme=5 / psy=1 / psy_rd=1.00:0.00 / mixed_ref=0 / me_range=16 / chroma_me=1 / trellis=1 / 8x8dct=1 / cqm=0 / deadzone=21,11 / fast_pskip=1 / chroma_qp_offset=0 / threads=6 / lookahead_threads=1 / sliced_threads=0 / nr=0 / decimate=1 / interlaced=0 / bluray_compat=0 / constrained_intra=0 / bframes=16 / b_pyramid=2 / b_adapt=1 / b_bias=0 / direct=1 / weightb=0 / open_gop=0 / weightp=2 / keyint=250 / keyint_min=23 / scenecut=40 / intra_refresh=0 / rc_lookahead=40 / rc=crf / mbtree=1 / crf=18.0 / qcomp=0.60 / qpmin=0 / qpmax=69 / qpstep=4 / ip_ratio=1.40 / aq=1:1.00
Language : English
Default : Yes
Forced : No

Audio #1
ID : 2
Format : AC-3
Format/Info : Audio Coding 3
Format settings, Endianness : Big
Codec ID : A_AC3
Duration : 1 h 52 min
Bit rate mode : Constant
Bit rate : 192 kb/s
Channel(s) : 2 channels
Channel positions : Front: L R
Sampling rate : 48.0 kHz
Frame rate : 31.250 FPS (1536 spf)
Bit depth : 16 bits
Compression mode : Lossy
Stream size : 154 MiB (4%)
Title : AC-3 Thai 2.0
Language : Thai
Service kind : Complete Main
Default : Yes
Forced : No

Audio #2
ID : 3
Format : AAC
Format/Info : Advanced Audio Codec
Format profile : LC
Codec ID : A_AAC
Duration : 1 h 52 min
Channel(s) : 2 channels
Channel positions : Front: L R
Sampling rate : 48.0 kHz
Frame rate : 46.875 FPS (1024 spf)
Compression mode : Lossy
Delay relative to video : 9 ms
Title : AAC Japanese 2.0
Language : Japanese
Default : No
Forced : No
BPS : 128012
DURATION : 01:52:18.731000000
NUMBER_OF_BYTES : 107830363
NUMBER_OF_FRAMES : 315878
_STATISTICS_WRITING_APP : mkvmerge v9.9.0 (‘



หมายเหตุ ทุกเว็บโหลดแทนกันได้ แต่ต้องเปลี่ยนชื่อให้เรียงกันด้วย

Cloud2free

สำหรับสมาชิก VIP เท่านั้น!

[restrict …]

|——————————————————————|

|——————————————————————|

[/restrict]

(Visited 2,375 times, 27 visits today)