Home > Mini-HD > [MINI-HD 1080P] Deepwater Horizon (2016) ฝ่าวิบัติเพลิงนรก [HD iTunes] [เสียงไทยโรง+อังกฤษ] [MKV] [FILEFENIX] [ONE2UP]

[MINI-HD 1080P] Deepwater Horizon (2016) ฝ่าวิบัติเพลิงนรก [HD iTunes] [เสียงไทยโรง+อังกฤษ] [MKV] [FILEFENIX] [ONE2UP]

[MINI-HD 1080P] Deepwater Horizon (2016) ฝ่าวิบัติเพลิงนรก [HD iTunes]

Deepwater Horizon” ภาพยนตร์แนวมหันตภัยฟอร์มยักษ์ ที่สร้างมาจากเรื่องจริงของเหตุการณ์แท่นขุดเจาะน้ำมันระเบิดครั้งที่ยิ่งใหญ่ที่สุดครั้งหนึ่งในหน้าประวัติศาสตร์ โดยภาพยนตร์บอกเล่าถึงความกล้าหาญของเหล่าบรรดาคนงานบนแท่นขุดเจาะน้ำมันดิบชื่อว่า “ดีปวอเทอร์ ฮอไรซัน” ในอ่าวเม็กซิโกเมื่อปี 2010 ที่ต้องพยายามเอาชีวิตทั้งของตนเองและพวกพ้องให้รอดจากมหันตภัยครั้งนี้ ซึ่งนับเป็นเหตุการณ์ท้าทายขีดจำกัดของมนุษย์ที่ถูกบันทึกไว้ว่าเป็น การรั่วไหลนอกชายฝั่งครั้งที่ใหญ่ที่สุดในประวัติศาสตร์สหรัฐอเมริกา

Deepwater.Horizon.2016.1080p.WEB-DL.H264.AC3.THRONG[Load2up.com].mkv
Format : Matroska
Format version : Version 4 / Version 2
File size : 3.84 GiB
Duration : 1 h 47 min
Overall bit rate : 5 125 kb/s
Movie name : Deepwater.Horizon.2016.1080p.WEB-DL.H264.AC3.THRONG[Load2up.com] Encoded date : UTC 2016-12-21 02:11:39
Writing application : mkvmerge v9.5.0 (‘Quiet Fire’) 32bit
Writing library : libebml v1.3.4 + libmatroska v1.4.5
Cover : Yes
Attachments : cover_land.jpg / small_cover.jpg / small_cover_land.jpg / cover.jpg

Video
ID : 1
Format : AVC
Format/Info : Advanced Video Codec
Format profile : [email protected]
Format settings, CABAC : Yes
Format settings, ReFrames : 5 frames
Codec ID : V_MPEG4/ISO/AVC
Duration : 1 h 47 min
Bit rate : 4 447 kb/s
Width : 1 908 pixels
Height : 792 pixels
Display aspect ratio : 2.40:1
Frame rate mode : Constant
Frame rate : 23.976 (24000/1001) FPS
Color space : YUV
Chroma subsampling : 4:2:0
Bit depth : 8 bits
Scan type : Progressive
Bits/(Pixel*Frame) : 0.123
Stream size : 3.33 GiB (87%)
Title : Deepwater.Horizon.2016.1080p.WEB-DL.H264.AC3.THEATER
Language : English
Default : Yes
Forced : Yes
Color range : Limited
Color primaries : BT.709
Transfer characteristics : BT.709
Matrix coefficients : BT.709

Audio #1
ID : 2
Format : AC-3
Format/Info : Audio Coding 3
Mode extension : CM (complete main)
Format settings, Endianness : Big
Codec ID : A_AC3
Duration : 1 h 47 min
Bit rate mode : Constant
Bit rate : 192 kb/s
Channel(s) : 2 channels
Channel positions : Front: L R
Sampling rate : 48.0 kHz
Frame rate : 31.250 FPS (1536 spf)
Bit depth : 16 bits
Compression mode : Lossy
Stream size : 147 MiB (4%)
Title : TH AC3 THEATER
Language : Thai
Default : Yes
Forced : Yes

Audio #2
ID : 3
Format : AC-3
Format/Info : Audio Coding 3
Mode extension : CM (complete main)
Format settings, Endianness : Big
Codec ID : A_AC3
Duration : 1 h 47 min
Bit rate mode : Constant
Bit rate : 384 kb/s
Channel(s) : 6 channels
Channel positions : Front: L C R, Side: L R, LFE
Sampling rate : 48.0 kHz
Frame rate : 31.250 FPS (1536 spf)
Bit depth : 16 bits
Compression mode : Lossy
Stream size : 295 MiB (7%)
Title : EN AC3
Language : English
Default : No
Forced : No



หมายเหตุ ทุกเว็บโหลดแทนกันได้ แต่ต้องเปลี่ยนชื่อให้เรียงกันด้วย