Home > Mini-HD > [MINI-HD 1080P] Deepwater Horizon (2016) ฝ่าวิบัติเพลิงนรก [พากย์ไทยโรง + อังกฤษ 5.1] [บรรยายอังกฤษ] [MKV] [ONE2UP]

[MINI-HD 1080P] Deepwater Horizon (2016) ฝ่าวิบัติเพลิงนรก [พากย์ไทยโรง + อังกฤษ 5.1] [บรรยายอังกฤษ] [MKV] [ONE2UP]

[MINI-HD 1080P] Deepwater Horizon (2016) ฝ่าวิบัติเพลิงนรก

Deepwater Horizon” ภาพยนตร์แนวมหันตภัยฟอร์มยักษ์ ที่สร้างมาจากเรื่องจริงของเหตุการณ์แท่นขุดเจาะน้ำมันระเบิดครั้งที่ยิ่งใหญ่ที่สุดครั้งหนึ่งในหน้าประวัติศาสตร์ โดยภาพยนตร์บอกเล่าถึงความกล้าหาญของเหล่าบรรดาคนงานบนแท่นขุดเจาะน้ำมันดิบชื่อว่า “ดีปวอเทอร์ ฮอไรซัน” ในอ่าวเม็กซิโกเมื่อปี 2010 ที่ต้องพยายามเอาชีวิตทั้งของตนเองและพวกพ้องให้รอดจากมหันตภัยครั้งนี้ ซึ่งนับเป็นเหตุการณ์ท้าทายขีดจำกัดของมนุษย์ที่ถูกบันทึกไว้ว่าเป็น การรั่วไหลนอกชายฝั่งครั้งที่ใหญ่ที่สุดในประวัติศาสตร์สหรัฐอเมริกา

Deepwater.Horizon.2016.1080p.[HDrip].Eng.DD_5.1.H264[Load2up,com].mkv
Format : Matroska
Format version : Version 4 / Version 2
File size : 4.08 GiB
Duration : 1 h 47 min
Overall bit rate : 5 445 kb/s
Movie name : Deepwater.Horizon.2016.1080p.Eng.DD_5.1.H264
Encoded date : UTC 2016-12-25 09:29:01
Writing application : mkvmerge v9.2.0 (‘Photograph’) 64bit
Writing library : libebml v1.3.3 + libmatroska v1.4.4
Cover : Yes
Attachments : cover_land.jpg / small_cover.jpg / small_cover_land.jpg / cover.jpg

Video
ID : 1
Format : AVC
Format/Info : Advanced Video Codec
Format profile : [email protected]
Format settings, CABAC : Yes
Format settings, ReFrames : 5 frames
Codec ID : V_MPEG4/ISO/AVC
Duration : 1 h 47 min
Bit rate : 4 547 kb/s
Width : 1 908 pixels
Height : 792 pixels
Display aspect ratio : 2.40:1
Frame rate mode : Constant
Frame rate : 23.976 (24000/1001) FPS
Color space : YUV
Chroma subsampling : 4:2:0
Bit depth : 8 bits
Scan type : Progressive
Bits/(Pixel*Frame) : 0.125
Stream size : 3.41 GiB (83%)
Title : Deepwater.Horizon.2016.1080p.[HDrip].Eng.DD_5.1.H264
Language : English
Default : Yes
Forced : No
Color range : Limited
Color primaries : BT.709
Transfer characteristics : BT.709
Matrix coefficients : BT.709

Audio #1
ID : 2
Format : AC-3
Format/Info : Audio Coding 3
Mode extension : CM (complete main)
Format settings, Endianness : Big
Codec ID : A_AC3
Duration : 1 h 47 min
Bit rate mode : Constant
Bit rate : 512 kb/s
Channel(s) : 2 channels
Channel positions : Front: L R
Sampling rate : 48.0 kHz
Frame rate : 31.250 FPS (1536 spf)
Bit depth : 16 bits
Compression mode : Lossy
Stream size : 393 MiB (9%)
Title : AC3.Thai_Theater. 2ch
Language : Thai
Default : No
Forced : No

Audio #2
ID : 3
Format : AC-3
Format/Info : Audio Coding 3
Mode extension : CM (complete main)
Format settings, Endianness : Big
Codec ID : A_AC3
Duration : 1 h 47 min
Bit rate mode : Constant
Bit rate : 384 kb/s
Channel(s) : 6 channels
Channel positions : Front: L C R, Side: L R, LFE
Sampling rate : 48.0 kHz
Frame rate : 31.250 FPS (1536 spf)
Bit depth : 16 bits
Compression mode : Lossy
Stream size : 295 MiB (7%)
Title : Deepwater.Horizon.2016.1080p.[HDrip].Eng.DD_5.1.H264-yo
Language : English
Default : Yes
Forced : No

Text #1
ID : 4
Format : UTF-8
Codec ID : S_TEXT/UTF8
Codec ID/Info : UTF-8 Plain Text
Duration : 1 h 40 min
Bit rate : 63 b/s
Count of elements : 1378
Stream size : 46.6 KiB (0%)
Title : SubRib/SRT
Language : English
Default : Yes
Forced : No

Text #2
ID : 5
Format : UTF-8
Codec ID : S_TEXT/UTF8
Codec ID/Info : UTF-8 Plain Text
Duration : 1 h 36 min
Bit rate : 67 b/s
Count of elements : 1172
Stream size : 47.9 KiB (0%)
Title : SubRib/SRT
Language : English
Default : No
Forced : No



หมายเหตุ ทุกเว็บโหลดแทนกันได้ แต่ต้องเปลี่ยนชื่อให้เรียงกันด้วย