Home > Mini-HD > [MINI-HD 1080P] City Hunter (2018) สายลับคาสโนเว่อร์ [พากย์ไทย+อังกฤษ] [SubThai+Eng] [MKV]

[MINI-HD 1080P] City Hunter (2018) สายลับคาสโนเว่อร์ [พากย์ไทย+อังกฤษ] [SubThai+Eng] [MKV]

[MINI-HD 1080P] City Hunter (2018) สายลับคาสโนเว่อร์

[Super HQ]Nicky.Larson.And.Cupids.Perfume.2018.1080p.BluRay[Load2up.com].mkv
Format : Matroska
Format version : Version 4
File size : 3.59 GiB
Duration : 1 h 31 min
Overall bit rate mode : Constant
Overall bit rate : 5 630 kb/s
Movie name : Nicky.Larson.And.Cupids.Perfume.2018.1080p.BluRay.-[Super HQ] Encoded date : UTC 2019-07-11 10:00:45
Writing application : mkvmerge v35.0.0 (‘All The Love In The World’) 64-bit
Writing library : libebml v1.3.9 + libmatroska v1.5.2

Video
ID : 1
Format : AVC
Format/Info : Advanced Video Codec
Format profile : [email protected]
Format settings : CABAC / 1 Ref Frames
Format settings, CABAC : Yes
Format settings, ReFrames : 1 frame
Format settings, GOP : M=1, N=25
Codec ID : V_MPEG4/ISO/AVC
Duration : 1 h 31 min
Bit rate mode : Constant
Bit rate : 4 000 kb/s
Width : 1 920 pixels
Height : 800 pixels
Display aspect ratio : 2.40:1
Frame rate mode : Constant
Frame rate : 29.970 (30000/1001) FPS
Color space : YUV
Chroma subsampling : 4:2:0
Bit depth : 8 bits
Scan type : Progressive
Bits/(Pixel*Frame) : 0.087
Stream size : 2.55 GiB (71%)
Default : Yes
Forced : No

Audio #1
ID : 2
Format : AC-3
Format/Info : Audio Coding 3
Commercial name : Dolby Digital
Codec ID : A_AC3
Duration : 1 h 31 min
Bit rate mode : Constant
Bit rate : 640 kb/s
Channel(s) : 6 channels
Channel layout : L R C LFE Ls Rs
Sampling rate : 44.1 kHz
Frame rate : 28.711 FPS (1536 SPF)
Bit depth : 16 bits
Compression mode : Lossy
Stream size : 418 MiB (11%)
Title : 5.1 AC3-Thai 640k 417m
Language : Thai
Service kind : Complete Main
Default : Yes
Forced : No

Audio #2
ID : 3
Format : DTS
Format/Info : Digital Theater Systems
Codec ID : A_DTS
Duration : 1 h 31 min
Bit rate mode : Constant
Bit rate : 992 kb/s
Channel(s) : 6 channels
Channel layout : C L R Ls Rs LFE
Sampling rate : 12.0 kHz
Frame rate : 11.719 FPS (1024 SPF)
Bit depth : 16 bits
Compression mode : Lossy
Stream size : 647 MiB (18%)
Title : dts 5.1-Frenceh 12000-647m
Language : French
Default : No
Forced : No



หมายเหตุ ทุกเว็บโหลดแทนกันได้ แต่ต้องเปลี่ยนชื่อให้เรียงกันด้วย

สำหรับสมาชิก VIP เท่านั้น!

[restrict …]

|——————————————————————|

|——————————————————————|

[/restrict]