Home > Mini-HD > [MINI-HD 1080P] Cars 3 (2017) สี่ล้อซิ่ง ชิงบัลลังก์แชมป์ [พากย์ไทยโรง 5.1+ เสียงอังกฤษ 5.1] [MKV] [ONE2UP]

[MINI-HD 1080P] Cars 3 (2017) สี่ล้อซิ่ง ชิงบัลลังก์แชมป์ [พากย์ไทยโรง 5.1+ เสียงอังกฤษ 5.1] [MKV] [ONE2UP]

INI-HD 1080P] Cars 3 (2017) สี่ล้อซิ่ง ชิงบัลลังก์แชมป์

Cars 3 (2017) หลังจากพ่ายแพ้ต่อเหล่านักแข่งไฟแรงรุ่นใหม่ ไลท์นิ่ง แมคควีนผู้เป็นตำนาน (ให้เสียงโดย โอเว่น วิลสัน) ได้หลุดออกจากวงการแข่งรถที่เขารัก การที่จะกลับเข้าไปสู่การแข่งขันได้อีกครั้ง เขาต้องการความช่วยเหลือจากช่างเทคนิครุ่นใหม่อย่าง ครูซ รามิเรซ (ให้เสียงโดย คริสเตล่า อลองโซ่) ด้วยแผนที่จะเอาชนะของเธอเอง บวกกับแรงบันดาลใจจาก ฮัดสัน ฮอร์เนท ยอดฝีมือผู้ล่วงลับ และเหตุการณ์ไม่คาดคิดอีกนิดหน่อย การพิสูจน์ว่าหมายเลข 95 ยังไม่จบง่ายๆ จะทดสอบหัวใจของแชมเปี้ยนในสนามแข่งที่ใหญ่ที่สุดของ พิสตันคัพ!

Cars.3.2017.1080p.BluRay.H264.AC-3_ThaiRong5.1[load2up.com].mkv
Format : Matroska
Format version : Version 4 / Version 2
File size : 2.27 GiB
Duration : 1 h 42 min
Overall bit rate : 3 174 kb/s
Movie name : Cars.3.2017.1080p.BluRay.H264.AC3-ThaiRong5.1
Encoded date : UTC 2017-10-28 21:08:12
Writing application : mkvmerge v9.9.0 (‘Pick Up’) 64bit
Writing library : libebml v1.3.4 + libmatroska v1.4.5
Cover : Yes
Attachments : cover.jpg

Video
ID : 1
Format : AVC
Format/Info : Advanced Video Codec
Format profile : [email protected]
Format settings, CABAC : Yes
Format settings, ReFrames : 4 frames
Codec ID : V_MPEG4/ISO/AVC
Duration : 1 h 42 min
Bit rate : 2 500 kb/s
Width : 1 920 pixels
Height : 804 pixels
Display aspect ratio : 2.40:1
Frame rate mode : Constant
Frame rate : 23.976 (23976/1000) FPS
Color space : YUV
Chroma subsampling : 4:2:0
Bit depth : 8 bits
Scan type : Progressive
Bits/(Pixel*Frame) : 0.068
Stream size : 1.79 GiB (79%)
Title : Cars.3.2017.1080p.BluRay.H264.AC3-ThaiRong5.1
Writing library : x264 core 152 r2851M ba24899
Language : English
Default : Yes
Forced : No

Audio #1
ID : 2
Format : AC-3
Format/Info : Audio Coding 3
Format settings, Endianness : Big
Codec ID : A_AC3
Duration : 1 h 42 min
Bit rate mode : Constant
Bit rate : 448 kb/s
Channel(s) : 6 channels
Channel positions : Front: L C R, Side: L R, LFE
Sampling rate : 48.0 kHz
Frame rate : 31.250 FPS (1536 spf)
Bit depth : 16 bits
Compression mode : Lossy
Delay relative to video : -43 ms
Stream size : 328 MiB (14%)
Title : ThaiRong 5.1 AC-3 By ~Mr.Captain~
Language : Thai
Service kind : Complete Main
Default : Yes
Forced : No

Audio #2
ID : 3
Format : AAC
Format/Info : Advanced Audio Codec
Format profile : LC
Codec ID : A_AAC
Duration : 1 h 42 min
Bit rate : 224 kb/s
Channel(s) : 6 channels
Channel positions : Front: L C R, Side: L R, LFE
Sampling rate : 48.0 kHz
Frame rate : 46.875 FPS (1024 spf)
Compression mode : Lossy
Delay relative to video : -43 ms
Stream size : 164 MiB (7%)
Title : English 5.1 AAC
Language : English
Default : No
Forced : No



หมายเหตุ ทุกเว็บโหลดแทนกันได้ แต่ต้องเปลี่ยนชื่อให้เรียงกันด้วย

Cloud2free

สำหรับสมาชิก VIP เท่านั้น!

[restrict …]

|——————————————————————|

|——————————————————————|

[/restrict]

(Visited 2,010 times, 10 visits today)