Home > Mini-HD > [MINI-HD 1080P] BUSHWICK (2017) สู้ยึดเมือง [พากย์ไทยโรง + อังกฤษ 5.1] [MKV] [ONE2UP]

[MINI-HD 1080P] BUSHWICK (2017) สู้ยึดเมือง [พากย์ไทยโรง + อังกฤษ 5.1] [MKV] [ONE2UP]

BUSHWICK (2017) สู้ยึดเมือง

Bushwick ทันทีที่ ลูซี่ (บริททานี สโนว์) เดินออกมาจากสถานีรถไฟบุชวิค เธอได้ค้นพบว่าเมืองเกิดของเธอกำลังถูกกองกำลังติดอาวุธที่สวมเสื้อทหารชุดดำจู่โจม เธอได้รับการช่วยเหลือจากอดีตนาวิกโยธิน สตูป (เดฟ บาทิสต้า) และได้ค้นพบว่าผู้ที่กำลังจู่โจมเมืองของเธอคือกองกำลังทหารจากเท็กซัสที่ต้องการแบ่งแยกดินแดน พวกเขามาพร้อมกับอาวุธ และใช้เมืองบุชวิคเป็นตัวประกันในการต่อรอง

Bushwick.2017.1080p.WEB-DL.DD5.1.H264.ThaiRong5.1[Load2up.com].mkv
Format : Matroska
Format version : Version 4 / Version 2
File size : 3.58 GiB
Duration : 1 h 33 min
Overall bit rate : 5 469 kb/s
Movie name : Bushwick.2017.1080p.WEB-DL.DD5.1.H264.ThaiRong5.1
Encoded date : UTC 2017-10-29 19:08:38
Writing application : mkvmerge v9.9.0 (‘Pick Up’) 64bit
Writing library : libebml v1.3.4 + libmatroska v1.4.5
Cover : Yes
Attachments : cover.jpg

Video
ID : 1
Format : AVC
Format/Info : Advanced Video Codec
Format profile : [email protected]
Format settings, CABAC : Yes
Format settings, ReFrames : 5 frames
Codec ID : V_MPEG4/ISO/AVC
Duration : 1 h 33 min
Bit rate : 4 635 kb/s
Width : 1 910 pixels
Height : 796 pixels
Display aspect ratio : 2.40:1
Frame rate mode : Constant
Frame rate : 23.976 (23976/1000) FPS
Color space : YUV
Chroma subsampling : 4:2:0
Bit depth : 8 bits
Scan type : Progressive
Bits/(Pixel*Frame) : 0.127
Stream size : 3.04 GiB (85%)
Title : Bushwick.2017.1080p.WEB-DL.DD5.1.H264.ThaiRong5.1
Language : English
Default : Yes
Forced : No
Color range : Limited
Color primaries : BT.709
Transfer characteristics : BT.709
Matrix coefficients : BT.709

Audio #1
ID : 2
Format : AC-3
Format/Info : Audio Coding 3
Format settings, Endianness : Big
Codec ID : A_AC3
Duration : 1 h 33 min
Bit rate mode : Constant
Bit rate : 448 kb/s
Channel(s) : 6 channels
Channel positions : Front: L C R, Side: L R, LFE
Sampling rate : 48.0 kHz
Frame rate : 31.250 FPS (1536 spf)
Bit depth : 16 bits
Compression mode : Lossy
Delay relative to video : -42 ms
Stream size : 301 MiB (8%)
Title : AC-3 ThaiRong 5.1
Service kind : Complete Main
Default : No
Forced : No

Audio #2
ID : 3
Format : AC-3
Format/Info : Audio Coding 3
Format settings, Endianness : Big
Codec ID : A_AC3
Duration : 1 h 33 min
Bit rate mode : Constant
Bit rate : 384 kb/s
Channel(s) : 6 channels
Channel positions : Front: L C R, Side: L R, LFE
Sampling rate : 48.0 kHz
Frame rate : 31.250 FPS (1536 spf)
Bit depth : 16 bits
Compression mode : Lossy
Delay relative to video : -42 ms
Stream size : 258 MiB (7%)
Title : AC-3 English DD5.1
Language : English
Service kind : Complete Main
Default : Yes
Forced : No



หมายเหตุ ทุกเว็บโหลดแทนกันได้ แต่ต้องเปลี่ยนชื่อให้เรียงกันด้วย

Cloud2free

สำหรับสมาชิก VIP เท่านั้น!

[restrict …]

|——————————————————————|

|——————————————————————|

[/restrict]

(Visited 1,603 times, 16 visits today)