Home > soundtrack > [MINI-HD 1080P] Bahubali 2 : The Conclusion (2017) ปิดตำนานบาฮูบาลี [Soundtrack บรรยายไทย] [MKV] [ONE2UP]

[MINI-HD 1080P] Bahubali 2 : The Conclusion (2017) ปิดตำนานบาฮูบาลี [Soundtrack บรรยายไทย] [MKV] [ONE2UP]

[MINI-HD 1080P] Bahubali 2 : The Conclusion (2017) ปิดตำนานบาฮูบาลี

เป็นเรื่องราวที่เกิดก่อนภาคแรก พระเจ้าอยู่หัวบาฮูบาลี เป็นกษัตริย์ที่ก้าวขึ้นสู่อำนาจโดยการแต่งตั้งของ มหาราชินีศิวากามี โดยตั้งขึ้นมาข้ามหัวภัลลาเทวะผู้พี่ ส่งผลให้ผู้พี่มีความอิจฉาริษยาน้องชายมาก ต่อมาบาฮูบาลีได้ปลอมตัวออกไปเที่ยวนอกวังแล้วไปตกหล ุมรักเดวาเซน่า เจ้าหญิงเมืองประเทศราชเล็กๆ แต่เป็นคนที่มีจิตใจเข้มแข็งเย่อหยิ่งในศักดิ์ศรี พี่ชายของบาฮูบาลีทราบเรื่องเลยไปทูลขอให้ราชินีศิวา กามีแต่งจดหมายไปสู่ขอเดวาเซน่ามาเป็นภรรยาของตัวเอง แต่ด้วยเนื้อความที่เขียนไปว่าขอให้ลูกชาย บาฮูบาลีกับเดวาเซน่าเลยเข้าใจผิดคิดว่าพระราชินีศิว ากามีต้องการให้ทั้งสองแต่งงานกัน แต่พอไปถึงเข้าจริงๆเลยพบว่าเป็นเรื่องเข้าใจผิด บาฮูบาลีเลยจำต้องยกบัลลังก์ให้พี่ชายตัวเอง เพื่อให้ตัวเองได้แต่งงานกับเดวาเซน่า แล้วบาฮูบาลีก็ลดตำแหน่งตัวเองเป็นแม่ทัพ แต่ประชาชนทั้งแผ่นดินกลับจงรักภักดีต่อบาฮูบาลีมากก ว่า โดยในวันพิธีบรมราชิภิเษก ไพร่ฟ้าหน้าใส และกองทัพช้างศึกแห่งแผ่นดินอินเดียต่างกู่ร้องกระทื บเท้าเอ่ยนามบาฮูบาลี จนแผ่นดินไหวสั่นสะเทือนไปจนฉัตรที่ประดับเหนือบัลลั งก์ของภัลลาเทวะหักลงมา จากเหตุการณ์ที่เกิดขึ้นนั้นเอง กษัตริย์ผู้พี่ก็รู้สึกอิจฉาบาฮูบาลีเป็นอย่างมาก จนต้องหาทางกำจัดบาฮูบาลีออกไปให้พ้นแผ่นดิน เรื่องราวบานปลายจนกลายเป็นศึกชิงบัลลังก์ถึงสมัยบาฮ ูบาลีคนลูก ที่กลายมาเป็นบาฮูบาลีภาคแรก ดังนั้นใครที่ลังเลว่าจะดูภาคสองดีไหมพูดเลย ไม่ต้องคิดเยอะ ไปดูได้เลย รับรองว่าดูรู้เรื่อง ดูจบแล้วกลับมาดูภาคแรก เพราะภาคแรกเดินเรื่องต่อจากภาคสอง

Bahubali.2.The.Conclusion.2017.1080P.x264[Load2up.com].mkv
Format : Matroska
Format version : Version 4 / Version 2
File size : 3.89 GiB
Duration : 2 h 46 min
Overall bit rate : 3 344 kb/s
Encoded date : UTC 2017-11-01 07:07:26
Writing application : mkvmerge v17.0.0 (‘Be Ur Friend’) 64-bit
Writing library : libebml v1.3.5 + libmatroska v1.4.8

Video
ID : 1
Format : AVC
Format/Info : Advanced Video Codec
Format profile : [email protected]
Format settings, CABAC : Yes
Format settings, ReFrames : 2 frames
Codec ID : V_MPEG4/ISO/AVC
Duration : 2 h 46 min
Bit rate : 3 034 kb/s
Width : 1 920 pixels
Height : 1 080 pixels
Display aspect ratio : 16:9
Frame rate mode : Constant
Frame rate : 24.000 FPS
Color space : YUV
Chroma subsampling : 4:2:0
Bit depth : 8 bits
Scan type : Progressive
Bits/(Pixel*Frame) : 0.061
Stream size : 3.53 GiB (91%)
Title : 1080P
Language : Hindi
Default : Yes
Forced : Yes
Color range : Limited
Color primaries : BT.709
Transfer characteristics : BT.709
Matrix coefficients : BT.709

Audio
ID : 2
Format : AAC
Format/Info : Advanced Audio Codec
Format profile : LC
Codec ID : A_AAC
Duration : 2 h 46 min
Bit rate : 308 kb/s
Channel(s) : 2 channels
Channel positions : Front: L R
Sampling rate : 48.0 kHz
Frame rate : 46.875 FPS (1024 spf)
Compression mode : Lossy
Stream size : 367 MiB (9%)
Title : AAC 2CH
Language : Hindi
Default : Yes
Forced : Yes

Text #1
ID : 3
Format : SSA
Codec ID : S_TEXT/SSA
Codec ID/Info : Sub Station Alpha
Duration : 2 h 41 min
Bit rate : 120 b/s
Count of elements : 1574
Compression mode : Lossless
Stream size : 143 KiB (0%)
Title : Modify by [email protected]
Language : Thai
Default : Yes
Forced : No

Text #2
ID : 4
Format : UTF-8
Codec ID : S_TEXT/UTF8
Codec ID/Info : UTF-8 Plain Text
Duration : 2 h 40 min
Bit rate : 45 b/s
Count of elements : 1505
Stream size : 53.9 KiB (0%)
Language : English
Default : No
Forced : No



หมายเหตุ ทุกเว็บโหลดแทนกันได้ แต่ต้องเปลี่ยนชื่อให้เรียงกันด้วย

Cloud2free

สำหรับสมาชิก VIP เท่านั้น!

[restrict …]

|——————————————————————|

|——————————————————————|

[/restrict]

(Visited 2,315 times, 24 visits today)