Home > Mini-HD > [MINI-HD 1080P] Assassination Nation (2018) แอสแซสซิเนชั่น เนชั่น [Sound Eng/Thai AC3 5.1] [SUB:Eng] [MKV]

[MINI-HD 1080P] Assassination Nation (2018) แอสแซสซิเนชั่น เนชั่น [Sound Eng/Thai AC3 5.1] [SUB:Eng] [MKV]

[MINI-HD 1080P] Assassination Nation (2018) แอสแซสซิเนชั่น เนชั่น

Assassination Nation (2018) BluRay 1080p [Load2up.com].mkv
Format : Matroska
Format version : Version 4
File size : 4.37 GiB
Duration : 1 h 47 min
Overall bit rate : 5 793 kb/s
Movie name : Assassination Nation (2018) BluRay 1080p
Encoded date : UTC 2019-05-30 17:38:47 / UTC 2019-05-30T13:12:50Z
Writing application : mkvmerge v34.0.0 (‘Sight and Seen’) 64-bit
Writing library : libebml v1.3.7 + libmatroska v1.5.0 / Lavf57.7.2

Video
ID : 1
Format : AVC
Format/Info : Advanced Video Codec
Format profile : [email protected]
Format settings : CABAC / 4 Ref Frames
Format settings, CABAC : Yes
Format settings, ReFrames : 4 frames
Codec ID : V_MPEG4/ISO/AVC
Duration : 1 h 47 min
Bit rate : 4 510 kb/s
Width : 1 920 pixels
Height : 800 pixels
Display aspect ratio : 2.40:1
Frame rate mode : Constant
Frame rate : 23.976 (24000/1001) FPS
Color space : YUV
Chroma subsampling : 4:2:0
Bit depth : 8 bits
Scan type : Progressive
Bits/(Pixel*Frame) : 0.122
Stream size : 3.40 GiB (78%)
Title : Assassination Nation (2018) BluRay 1080p
Writing library : x264 core 155 r2901 7d0ff22
Language : English
Default : Yes
Forced : No
Color range : Limited
Color primaries : BT.709
Transfer characteristics : BT.709
Matrix coefficients : BT.709

Audio #1
ID : 2
Format : AC-3
Format/Info : Audio Coding 3
Commercial name : Dolby Digital
Codec ID : A_AC3
Duration : 1 h 47 min
Bit rate mode : Constant
Bit rate : 640 kb/s
Channel(s) : 6 channels
Channel layout : L R C LFE Ls Rs
Sampling rate : 44.1 kHz
Frame rate : 28.711 FPS (1536 SPF)
Bit depth : 16 bits
Compression mode : Lossy
Stream size : 494 MiB (11%)
Title : 5.1 AC3-Thai 640k 494m
Language : Thai
Service kind : Complete Main
Default : Yes
Forced : No

Audio #2
ID : 3
Format : AC-3
Format/Info : Audio Coding 3
Commercial name : Dolby Digital
Codec ID : A_AC3
Duration : 1 h 47 min
Bit rate mode : Constant
Bit rate : 640 kb/s
Channel(s) : 6 channels
Channel layout : L R C LFE Ls Rs
Sampling rate : 44.1 kHz
Frame rate : 28.711 FPS (1536 SPF)
Bit depth : 16 bits
Compression mode : Lossy
Stream size : 494 MiB (11%)
Title : 5.1 AC3-Eng 640k 494m
Language : English
Service kind : Complete Main
Default : No
Forced : No

Text #1
ID : 4
Format : ASS
Codec ID : S_TEXT/ASS
Codec ID/Info : Advanced Sub Station Alpha
Duration : 1 h 38 min
Bit rate : 96 b/s
Count of elements : 1283
Compression mode : Lossless
Stream size : 69.2 KiB (0%)
Title : ASS
Language : English
Default : Yes
Forced : No

Text #2
ID : 5
Format : UTF-8
Codec ID : S_TEXT/UTF8
Codec ID/Info : UTF-8 Plain Text
Duration : 1 h 38 min
Bit rate : 57 b/s
Count of elements : 1283
Stream size : 41.5 KiB (0%)
Title : SRT
Language : English
Default : No
Forced : No

Text #3
ID : 6
Format : UTF-8
Codec ID : S_TEXT/UTF8
Codec ID/Info : UTF-8 Plain Text
Duration : 1 h 46 min
Bit rate : 66 b/s
Count of elements : 1583
Stream size : 51.6 KiB (0%)
Title : SRT-Hearing Impaired=ผู้บกพร่องทางเสียง
Language : English
Default : No
Forced : No



หมายเหตุ ทุกเว็บโหลดแทนกันได้ แต่ต้องเปลี่ยนชื่อให้เรียงกันด้วย

สำหรับสมาชิก VIP เท่านั้น!

[restrict …]

|——————————————————————|

|——————————————————————|

[/restrict]