Home > Mini-HD > [MINI-HD 1080P] Aquaman (2018) อควาแมน เจ้าสมุทร [พากย์ไทยโรง อังกฤษ] [บรรยายไทย iTune + ซับ PGS คมชัด] [MKV]

[MINI-HD 1080P] Aquaman (2018) อควาแมน เจ้าสมุทร [พากย์ไทยโรง อังกฤษ] [บรรยายไทย iTune + ซับ PGS คมชัด] [MKV]

[MINI-HD 1080P] Aquaman (2018) อควาแมน เจ้าสมุทร

Aquaman.2018.1080p.WEBRip.x264.[Load2up.com].mkv
Format : Matroska
Format version : Version 4
File size : 2.81 GiB
Duration : 2 h 23 min
Overall bit rate : 2 802 kb/s
Movie name : Aquaman.2018.1080p.WEBRip.x264
Encoded date : UTC 2019-03-09 10:08:35
Writing application : mkvmerge v7.2.0 (‘On Every Street’) 32bit built on Sep 13 2014 15:42:11
Writing library : libebml v1.3.0 + libmatroska v1.4.1

Video
ID : 1
Format : AVC
Format/Info : Advanced Video Codec
Format profile : [email protected]
Format settings : CABAC / 4 Ref Frames
Format settings, CABAC : Yes
Format settings, ReFrames : 4 frames
Codec ID : V_MPEG4/ISO/AVC
Duration : 2 h 23 min
Bit rate : 2 150 kb/s
Width : 1 920 pixels
Height : 800 pixels
Display aspect ratio : 2.40:1
Frame rate mode : Constant
Frame rate : 23.976 (24000/1001) FPS
Color space : YUV
Chroma subsampling : 4:2:0
Bit depth : 8 bits
Scan type : Progressive
Bits/(Pixel*Frame) : 0.058
Stream size : 2.15 GiB (77%)
Title : Aquaman.2018.1080p.WEBRip.x264
Writing library : x264 core 157
Language : English
Default : Yes
Forced : Yes

Audio #1
ID : 2
Format : AC-3
Format/Info : Audio Coding 3
Commercial name : Dolby Digital
Codec ID : A_AC3
Duration : 2 h 22 min
Bit rate mode : Constant
Bit rate : 448 kb/s
Channel(s) : 6 channels
Channel layout : L R C LFE Ls Rs
Sampling rate : 48.0 kHz
Frame rate : 31.250 FPS (1536 SPF)
Bit depth : 16 bits
Compression mode : Lossy
Delay relative to video : 7 s 357 ms
Stream size : 457 MiB (16%)
Title : Thai Rong AC3
Language : Thai
Service kind : Complete Main
Default : Yes
Forced : Yes

Audio #2
ID : 3
Format : AAC LC
Format/Info : Advanced Audio Codec Low Complexity
Codec ID : A_AAC-2
Duration : 2 h 23 min
Bit rate : 148 kb/s
Channel(s) : 2 channels
Channel layout : L R
Sampling rate : 48.0 kHz
Frame rate : 46.875 FPS (1024 SPF)
Compression mode : Lossy
Delay relative to video : -43 ms
Stream size : 152 MiB (5%)
Title : English AAC
Language : English
Default : No
Forced : No

Text #1
ID : 4
Format : VobSub
Codec ID : S_VOBSUB
Codec ID/Info : Picture based subtitle format used on DVDs
Duration : 2 h 23 min
Bit rate : 1 648 b/s
Count of elements : 1125
Stream size : 1.69 MiB (0%)
Title : Thai 480p
Language : Thai
Default : No
Forced : No

Text #2
ID : 5
Format : VobSub
Codec ID : S_VOBSUB
Codec ID/Info : Picture based subtitle format used on DVDs
Duration : 2 h 23 min
Bit rate : 3 303 b/s
Count of elements : 1125
Stream size : 3.38 MiB (0%)
Title : Thai 720p
Language : Thai
Default : No
Forced : No

Text #3
ID : 6
Format : VobSub
Codec ID : S_VOBSUB
Codec ID/Info : Picture based subtitle format used on DVDs
Duration : 2 h 23 min
Bit rate : 4 688 b/s
Count of elements : 1125
Stream size : 4.80 MiB (0%)
Title : Thai 1080p
Language : Thai
Default : Yes
Forced : Yes

Text #4
ID : 7
Format : VobSub
Codec ID : S_VOBSUB
Codec ID/Info : Picture based subtitle format used on DVDs
Duration : 2 h 23 min
Bit rate : 4 599 b/s
Count of elements : 1125
Stream size : 4.71 MiB (0%)
Title : Thai 1080p SaraBun
Language : Thai
Default : No
Forced : No

Text #5
ID : 8
Format : VobSub
Codec ID : S_VOBSUB
Codec ID/Info : Picture based subtitle format used on DVDs
Duration : 2 h 23 min
Bit rate : 5 645 b/s
Count of elements : 1125
Stream size : 5.78 MiB (0%)
Title : Thai 1080p Yellow
Language : Thai
Default : No
Forced : No

Text #6
ID : 9
Format : PGS
Codec ID : S_HDMV/PGS
Codec ID/Info : Picture based subtitle format used on BDs/HD-DVDs
Duration : 2 h 23 min
Bit rate : 14.2 kb/s
Count of elements : 2250
Stream size : 14.5 MiB (1%)
Title : Thai PGS
Language : Thai
Default : No
Forced : No

Text #7
ID : 10
Format : PGS
Codec ID : S_HDMV/PGS
Codec ID/Info : Picture based subtitle format used on BDs/HD-DVDs
Duration : 2 h 15 min
Bit rate : 23.8 kb/s
Count of elements : 2948
Stream size : 23.0 MiB (1%)
Title : English PGS
Language : English
Default : No
Forced : No



หมายเหตุ ทุกเว็บโหลดแทนกันได้ แต่ต้องเปลี่ยนชื่อให้เรียงกันด้วย

สำหรับสมาชิก VIP เท่านั้น!

[restrict …]

|——————————————————————|

|——————————————————————|

[/restrict]