Home > Mini-HD > [MINI-HD 1080P] A Twelve-Year Night (2018) 12 ปี ฝันร้ายไม่ลืม [Soundtrack บรรยายไทย] [MKV]

[MINI-HD 1080P] A Twelve-Year Night (2018) 12 ปี ฝันร้ายไม่ลืม [Soundtrack บรรยายไทย] [MKV]

[MINI-HD 1080P] A Twelve-Year Night (2018) 12 ปี ฝันร้ายไม่ลืม

A Twelve Year Night[Load2up.com].mkv
Format : Matroska
Format version : Version 4 / Version 2
File size : 2.42 GiB
Duration : 2 h 2 min
Overall bit rate : 2 835 kb/s
Encoded date : UTC 2019-01-17 16:07:37
Writing application : mkvmerge v8.2.0 (‘World of Adventure’) 32bit
Writing library : libebml v1.3.1 + libmatroska v1.4.2

Video
ID : 1
Format : AVC
Format/Info : Advanced Video Codec
Format profile : [email protected]
Format settings, CABAC : Yes
Format settings, RefFrames : 4 frames
Codec ID : V_MPEG4/ISO/AVC
Duration : 2 h 2 min
Bit rate : 2 452 kb/s
Width : 1 920 pixels
Height : 1 036 pixels
Display aspect ratio : 1.85:1
Frame rate mode : Constant
Frame rate : 24.000 FPS
Color space : YUV
Chroma subsampling : 4:2:0
Bit depth : 8 bits
Scan type : Progressive
Bits/(Pixel*Frame) : 0.051
Stream size : 2.10 GiB (86%)
Writing library : x264 core 148 r2708 86b7198
Default : Yes
Forced : No
Color range : Limited
Color primaries : BT.709
Transfer characteristics : BT.709
Matrix coefficients : BT.709

Audio
ID : 2
Format : AAC
Format/Info : Advanced Audio Codec
Format profile : LC
Codec ID : A_AAC
Duration : 2 h 2 min
Bit rate : 384 kb/s
Channel(s) : 6 channels
Channel positions : Front: L C R, Side: L R, LFE
Sampling rate : 48.0 kHz
Frame rate : 46.875 FPS (1024 SPF)
Compression mode : Lossy
Delay relative to video : -124 ms
Stream size : 334 MiB (13%)
Default : Yes
Forced : No



หมายเหตุ ทุกเว็บโหลดแทนกันได้ แต่ต้องเปลี่ยนชื่อให้เรียงกันด้วย

สำหรับสมาชิก VIP เท่านั้น!

[restrict …]

|——————————————————————|

|——————————————————————|

[/restrict]