Home > Master > [MINI-HD 1080P] It (2017) อิท โผล่จากนรก [พากย์ไทย 5.1 + เสียงอังกฤษ DTS] [บรรยาย อังกฤษ] [MKV] [ONE2UP]

[MINI-HD 1080P] It (2017) อิท โผล่จากนรก [พากย์ไทย 5.1 + เสียงอังกฤษ DTS] [บรรยาย อังกฤษ] [MKV] [ONE2UP]

[MINI-HD 1080P] It (2017) อิท โผล่จากนรก

It.2017.1080p.BDRip.DTS[Load2up.com].mkv
Format : Matroska
Format version : Version 4 / Version 2
File size : 4.99 GiB
Duration : 2 h 14 min
Overall bit rate : 5 298 kb/s
Movie name : [enthdmovieclub]It.2017.1080p.BDRip.DTS
Encoded date : UTC 2017-12-30 14:00:28
Writing application : mkvmerge v18.0.0 (‘Apricity’) 64-bit
Writing library : libebml v1.3.5 + libmatroska v1.4.8
Cover : Yes
Attachments : cover.jpg

Video
ID : 1
Format : AVC
Format/Info : Advanced Video Codec
Format profile : [email protected]
Format settings, CABAC : Yes
Format settings, ReFrames : 5 frames
Codec ID : V_MPEG4/ISO/AVC
Duration : 2 h 14 min
Bit rate : 3 878 kb/s
Width : 1 920 pixels
Height : 800 pixels
Display aspect ratio : 2.40:1
Frame rate mode : Constant
Frame rate : 23.976 (24000/1001) FPS
Color space : YUV
Chroma subsampling : 4:2:0
Bit depth : 8 bits
Scan type : Progressive
Bits/(Pixel*Frame) : 0.105
Stream size : 3.65 GiB (73%)
Writing library : x264 core 152 r2851 ba24899
Language : English
Default : Yes
Forced : No

Audio #1
ID : 2
Format : AC-3
Format/Info : Audio Coding 3
Format settings, Endianness : Big
Codec ID : A_AC3
Duration : 2 h 14 min
Bit rate mode : Constant
Bit rate : 640 kb/s
Channel(s) : 6 channels
Channel positions : Front: L C R, Side: L R, LFE
Sampling rate : 48.0 kHz
Frame rate : 31.250 FPS (1536 spf)
Bit depth : 16 bits
Compression mode : Lossy
Stream size : 617 MiB (12%)
Title : Thai Master
Language : Thai
Service kind : Complete Main
Default : Yes
Forced : Yes

Audio #2
ID : 3
Format : DTS
Format/Info : Digital Theater Systems
Mode : 16
Format settings, Endianness : Big
Codec ID : A_DTS
Duration : 2 h 14 min
Bit rate mode : Constant
Bit rate : 768 kb/s
Channel(s) : 6 channels
Channel positions : Front: L C R, Side: L R, LFE
Sampling rate : 48.0 kHz
Frame rate : 93.750 FPS (512 spf)
Bit depth : 24 bits
Compression mode : Lossy
Stream size : 740 MiB (14%)
Title : Eng DTS
Language : English
Default : No
Forced : No

Text
ID : 4
Format : PGS
Muxing mode : zlib
Codec ID : S_HDMV/PGS
Codec ID/Info : Picture based subtitle format used on BDs/HD-DVDs
Duration : 2 h 14 min
Bit rate : 31.9 kb/s
Count of elements : 3677
Stream size : 30.7 MiB (1%)
Title : Eng
Language : English
Default : Yes
Forced : No



หมายเหตุ ทุกเว็บโหลดแทนกันได้ แต่ต้องเปลี่ยนชื่อให้เรียงกันด้วย

สำหรับสมาชิก VIP เท่านั้น!

[restrict …]

|——————————————————————|

|——————————————————————|

[/restrict]