Home > Mini-HD > [MINI-HD 1080P] จำเนียรวิเวียนโตมร (2016) I Love You Two [พากย์ไทย 5.1] [MKV] [ONE2UP]

[MINI-HD 1080P] จำเนียรวิเวียนโตมร (2016) I Love You Two [พากย์ไทย 5.1] [MKV] [ONE2UP]

[MINI-HD 1080P] จำเนียรวิเวียนโตมร (2016) I Love You Two

จำเนียรวิเวียนโตมรเป็นเรื่องราวของวิเวียน สาวสวยที่ไม่เคยเชื่ออะไรเลยนอกจากดวงและโชคชะตาเมื่อเธออยากมีคนรัก เธอจึงเดินทางไปขอ ณ ศาลเจ้าแห่งหนึ่ง ดูเหมือนเทพเจ้าจะใจดี เลยส่งชายหนุ่มที่ตรงสเปคมาให้ถึงสองคนที่สำคัญไม่ส่งมาแต่ผู้ชาย ยังส่งความอันตรายมาด้วย งานนี้กว่าจะตกลงเลือกได้ว่ารักใครชอบใครก็อาจจะมีเลือดตกยางออกกันได้สาวสวยอย่างวิเวียน กำลังค้นหาความหมายของชีวิตในสิ่งที่เธอปรารถนาอย่างแท้จริง ถึงแม้ความสวยงามของเธอจะจับใจผู้คนมากมายแต่เธอนั้นก็ยังไม่มั่นใจในตัวเองเสียที ทั้งที่เธอนั้นเป็นที่หมายปอง และอยู่ในจุดที่จะทำให้ชายทั้งหลายต้องไขว่คว้า อย่างไรก็ตาม เธอยังคงต้องการที่พึ่งทางใจเพื่อเพิ่มความมั่นใจในตัวเอง ให้ดูดดีอยู่ตลอดเวลา ด้วยการเคารพสักการะสิ่งศักดิ์สิทธิ์ ด้วยความหวังว่าจะขอมีรักแท้สักครั้งในชีวิตและให้เธอพบกับชายในแบบที่เธอต้องการเสียที เพราะ เธอเองก็ยังเหงาอยู่ไม่น้อยที่ต้องครองตัวเป็นโสด อย่างไรก็ตามเธอเข้าใจตัวเองดีว่าเลือกสรรผู้ชายที่จะมาเป็นคู่รักของเธอมากเป็นพิเศษ การเดินทางของเธอครั้งนี้ก็เต็มไปด้วยความหวังเช่นกัน ด้วยการมาขอพร ณ ศาลเจ้าแห่งหนึ่ง ที่มีเสียงร่ำลือว่าทุกคนจะสมปรารถนาหากขอพรด้วยความจริงใจและศรัทธาอย่างแท้จริง ถึงแม้ว่าจะเคยผิดหวังเสียใจมาบ้าง แต่การมาของเธอครั้งนี้เต็มไปดวยความหวังอีกครั้งเธอได้ขอพรด้วยขอให้เจอคนรักที่แท้จริงเสียที และนี่คือที่มาของจำเนียรวิเวียนโตมร

I Love You Two[Load2up.com].mkv
Format : Matroska
Format version : Version 2
File size : 1.91 GiB
Duration : 1 h 51 min
Overall bit rate : 2 455 kb/s
Writing application : HandBrake 0.9.9
Writing library : libmkv 0.6.5

Video
ID : 1
Format : AVC
Format/Info : Advanced Video Codec
Format profile : [email protected]
Format settings, CABAC : Yes
Format settings, ReFrames : 4 frames
Codec ID : V_MPEG4/ISO/AVC
Duration : 1 h 51 min
Bit rate : 2 002 kb/s
Width : 720 pixels
Height : 404 pixels
Display aspect ratio : 16:9
Frame rate mode : Constant
Frame rate : 25.000 FPS
Color space : YUV
Chroma subsampling : 4:2:0
Bit depth : 8 bits
Scan type : Progressive
Bits/(Pixel*Frame) : 0.275
Stream size : 1.52 GiB (80%)
Writing library : x264 core 130 r2273 b3065e6
Language : English
Default : Yes
Forced : No
Color range : Limited
Color primaries : BT.601 PAL
Transfer characteristics : BT.709
Matrix coefficients : BT.601

Audio
ID : 2
Format : AC-3
Format/Info : Audio Coding 3
Format settings, Endianness : Big
Codec ID : A_AC3
Duration : 1 h 51 min
Bit rate mode : Constant
Bit rate : 448 kb/s
Channel(s) : 6 channels
Channel positions : Front: L C R, Side: L R, LFE
Sampling rate : 48.0 kHz
Frame rate : 31.250 FPS (1536 spf)
Bit depth : 16 bits
Compression mode : Lossy
Stream size : 356 MiB (18%)
Language : Thai
Service kind : Complete Main
Default : Yes
Forced : No



หมายเหตุ ทุกเว็บโหลดแทนกันได้ แต่ต้องเปลี่ยนชื่อให้เรียงกันด้วย

สำหรับสมาชิก VIP เท่านั้น!

[restrict …]

|——————————————————————|

|——————————————————————|

[/restrict]