Home > Master > [MINI-HD 1080P] น้อง พี่ ที่รัก (2018) Nong Pee Teerak [เสียงไทย 5.1] [บรรยายอังกฤษ] [MKV]

[MINI-HD 1080P] น้อง พี่ ที่รัก (2018) Nong Pee Teerak [เสียงไทย 5.1] [บรรยายอังกฤษ] [MKV]

[MINI-HD 1080P] น้อง พี่ ที่รัก (2018) Nong Pee Teerak

Brother.of.the.Year.2018.1080p.WEB-DL.AC3.x264[Load2up.com].mkv
Format : Matroska
Format version : Version 4 / Version 2
File size : 5.02 GiB
Duration : 2 h 3 min
Overall bit rate : 5 817 kb/s
Movie name : Brother.of.the.Year.2018.1080p.WEB-DL.AC3.x264
Encoded date : UTC 2018-12-01 05:23:25
Writing application : mkvmerge v9.8.0 (‘Kuglblids’) 64bit
Writing library : libebml v1.3.4 + libmatroska v1.4.5

Video
ID : 1
Format : AVC
Format/Info : Advanced Video Codec
Format profile : [email protected]
Format settings, CABAC : Yes
Format settings, RefFrames : 4 frames
Codec ID : V_MPEG4/ISO/AVC
Duration : 2 h 3 min
Bit rate : 5 186 kb/s
Width : 1 912 pixels
Height : 1 032 pixels
Display aspect ratio : 1.85:1
Frame rate mode : Constant
Frame rate : 24.000 FPS
Color space : YUV
Chroma subsampling : 4:2:0
Bit depth : 8 bits
Scan type : Progressive
Bits/(Pixel*Frame) : 0.110
Stream size : 4.47 GiB (89%)
Title : Brother.of.the.Year.2018.1080p.WEB-DL.AC3.x264
Language : Thai
Default : Yes
Forced : No
Color range : Limited
Color primaries : BT.709
Transfer characteristics : BT.709
Matrix coefficients : BT.709

Audio #1
ID : 2
Format : AC-3
Format/Info : Audio Coding 3
Format settings, Endianness : Big
Codec ID : A_AC3
Duration : 2 h 3 min
Bit rate mode : Constant
Bit rate : 384 kb/s
Channel(s) : 6 channels
Channel positions : Front: L C R, Side: L R, LFE
Sampling rate : 48.0 kHz
Frame rate : 31.250 FPS (1536 SPF)
Bit depth : 16 bits
Compression mode : Lossy
Stream size : 339 MiB (7%)
Title : Thai AC3 5.1
Language : Thai
Service kind : Complete Main
Default : No
Forced : No

Audio #2
ID : 3
Format : AAC
Format/Info : Advanced Audio Codec
Format profile : LC
Codec ID : A_AAC
Duration : 2 h 3 min
Bit rate : 238 kb/s
Channel(s) : 2 channels
Channel positions : Front: L R
Sampling rate : 48.0 kHz
Frame rate : 46.875 FPS (1024 SPF)
Compression mode : Lossy
Stream size : 210 MiB (4%)
Title : Thai 2.0
Language : Thai
Default : Yes
Forced : No

Text
ID : 4
Format : VobSub
Codec ID : S_VOBSUB
Codec ID/Info : Picture based subtitle format used on DVDs
Duration : 1 h 58 min
Bit rate : 6 142 b/s
Count of elements : 1683
Stream size : 5.22 MiB (0%)
Title : English
Language : English
Default : Yes
Forced : No



หมายเหตุ ทุกเว็บโหลดแทนกันได้ แต่ต้องเปลี่ยนชื่อให้เรียงกันด้วย

สำหรับสมาชิก VIP เท่านั้น!

[restrict …]

|——————————————————————|

|——————————————————————|

[/restrict]