Home > Mini-HD > [MINI-HD 1080P] ฉลาดเกมส์โกง (2017) Bad Genius [พากย์ไทย DTS + จีน 5.1] [ซับไทย + อังกฤษ] [MASTER] [MKV] [ONE2UP]

[MINI-HD 1080P] ฉลาดเกมส์โกง (2017) Bad Genius [พากย์ไทย DTS + จีน 5.1] [ซับไทย + อังกฤษ] [MASTER] [MKV] [ONE2UP]

[MINI-HD 1080P] ฉลาดเกมส์โกง (2017) Bad Genius

“ฉลาดเกมส์โกง” เรื่องราวของเด็กฉลาด กับภารกิจโกงข้อสอบ เปลี่ยนกระดาษคำตอบให้เป็นเงินล้าน ขอต้อนรับทุกคนเข้าสู่ “ธุรกิจกลางสนามสอบ” ของ ลิน (ออกแบบ-ชุติมณฑน์ จึงเจริญสุขยิ่ง) นักเรียนทุนเจ้าของเกรดเฉลี่ย 4.00 ทุกปีการศึกษา ธุรกิจที่มีจุดเริ่มต้นจากการช่วยเพื่อนสนิทอย่าง เกรซ (อุ้ม อิษยา ฮอสุวรรณ) เด็กกิจกรรมตัวยงแต่ผลการเรียนย่ำแย่ และ พัฒน์ (เจมส์ ธีรดนย์ ศุภพันธุ์ภิญโญ) เด็กบ้านรวยที่คิดว่าเงินซื้อได้ทุกอย่าง ด้วยการแชร์คำตอบกลางห้องสอบ จนกลายเป็นวงการลอกขนาดใหญ่ ที่นักเรียนหลายคนในโรงเรียนยินดีจ่ายค่าตอบแทนแบบสูงลิบ แลกกับการได้รับคำตอบจากอัจฉริยะอย่างลิน

{MINI Super-HQ}_Bad.Genius.2017.1080p.BrRip.DTS.x264[Load2up.com].mkv
Format : Matroska
Format version : Version 4 / Version 2
File size : 3.89 GiB
Duration : 2 h 9 min
Overall bit rate : 4 288 kb/s
Movie name : {MINI Super-HQ}[email protected]
Encoded date : UTC 2010-02-22 21:41:31
Writing application : mkvmerge v5.9.0 (‘On The Loose’) built on Dec 9 2012 15:37:01
Writing library : libebml v1.3.0 + libmatroska v1.4.0

Video
ID : 1
Format : AVC
Format/Info : Advanced Video Codec
Format profile : [email protected]
Format settings, CABAC : Yes
Format settings, ReFrames : 4 frames
Codec ID : V_MPEG4/ISO/AVC
Duration : 2 h 9 min
Bit rate : 3 505 kb/s
Width : 1 920 pixels
Height : 804 pixels
Display aspect ratio : 2.40:1
Frame rate mode : Constant
Frame rate : 24.000 FPS
Color space : YUV
Chroma subsampling : 4:2:0
Bit depth : 8 bits
Scan type : Progressive
Bits/(Pixel*Frame) : 0.095
Stream size : 3.13 GiB (80%)
Title : {MINI Super-HQ}[email protected]
Writing library : x264 core 130 r2273 b3065e6
Encoding settings : cabac=1 / ref=3 / deblock=1:0:0 / analyse=0x3:0x113 / me=umh / subme=11 / psy=1 / psy_rd=1.00:0.00 / mixed_ref=1 / me_range=48 / chroma_me=1 / trellis=2 / 8x8dct=1 / cqm=0 / deadzone=21,11 / fast_pskip=1 / chroma_qp_offset=-2 / threads=10 / lookahead_threads=1 / sliced_threads=0 / nr=0 / decimate=1 / interlaced=0 / bluray_compat=0 / constrained_intra=0 / bframes=3 / b_pyramid=2 / b_adapt=1 / b_bias=0 / direct=1 / weightb=1 / open_gop=0 / weightp=2 / keyint=240 / keyint_min=24 / scenecut=40 / intra_refresh=0 / rc_lookahead=40 / rc=2pass / mbtree=1 / bitrate=3505 / ratetol=1.0 / qcomp=0.60 / qpmin=0 / qpmax=69 / qpstep=4 / cplxblur=20.0 / qblur=0.5 / ip_ratio=1.40 / aq=1:1.00
Language : Thai
Default : Yes
Forced : No
Color range : Limited
Color primaries : BT.709
Transfer characteristics : BT.709
Matrix coefficients : BT.709

Audio
ID : 2
Format : DTS
Format/Info : Digital Theater Systems
Mode : 16
Format settings, Endianness : Big
Codec ID : A_DTS
Duration : 2 h 9 min
Bit rate mode : Constant
Bit rate : 755 kb/s
Channel(s) : 6 channels
Channel positions : Front: L C R, Side: L R, LFE
Sampling rate : 48.0 kHz
Frame rate : 93.750 FPS (512 spf)
Bit depth : 24 bits
Compression mode : Lossy
Stream size : 701 MiB (18%)
Title : Thai DTS BluRay Master
Language : Thai
Default : Yes
Forced : Yes

Text #1
ID : 3
Format : VobSub
Codec ID : S_VOBSUB
Codec ID/Info : Picture based subtitle format used on DVDs
Language : Thai
Default : Yes
Forced : Yes

Text #2
ID : 4
Format : PGS
Codec ID : S_HDMV/PGS
Codec ID/Info : Picture based subtitle format used on BDs/HD-DVDs
Title : English
Language : English
Default : No
Forced : No



หมายเหตุ ทุกเว็บโหลดแทนกันได้ แต่ต้องเปลี่ยนชื่อให้เรียงกันด้วย

Cloud2free

สำหรับสมาชิก VIP เท่านั้น!

[restrict …]

|——————————————————————|

|——————————————————————|

[/restrict]