Home > VIP > [HDCAM 720p] Jumanji Welcome to the Jungle (2017) เกมดูดโลก บุกป่ามหัศจรรย์ [พากย์ไทยโรง] [MKV] [ONE2UP]

[HDCAM 720p] Jumanji Welcome to the Jungle (2017) เกมดูดโลก บุกป่ามหัศจรรย์ [พากย์ไทยโรง] [MKV] [ONE2UP]

[HDCAM 720p] Jumanji Welcome to the Jungle (2017) เกมดูดโลก บุกป่ามหัศจรรย์

Jumanji Welcome to the Jungle.2017.HDCAM[Load2up.com].mkv
Format : Matroska
Format version : Version 4 / Version 2
File size : 2.85 GiB
Duration : 1 h 51 min
Overall bit rate : 3 669 kb/s
Encoded date : UTC 2017-12-30 18:34:45
Writing application : mkvmerge v9.9.0 (‘Pick Up’) 64bit
Writing library : libebml v1.3.4 + libmatroska v1.4.5

Video
ID : 1
Format : AVC
Format/Info : Advanced Video Codec
Format profile : [email protected]
Format settings, CABAC : Yes
Format settings, ReFrames : 4 frames
Codec ID : V_MPEG4/ISO/AVC
Duration : 1 h 51 min
Bit rate : 3 500 kb/s
Width : 1 280 pixels
Height : 542 pixels
Display aspect ratio : 2.35:1
Frame rate mode : Constant
Frame rate : 59.940 (60000/1001) FPS
Color space : YUV
Chroma subsampling : 4:2:0
Bit depth : 8 bits
Scan type : Progressive
Bits/(Pixel*Frame) : 0.084
Stream size : 2.70 GiB (95%)
Writing library : x264 core 144
Default : Yes
Forced : No
Color range : Limited
Color primaries : BT.601 PAL
Matrix coefficients : BT.601

Audio
ID : 2
Format : AC-3
Format/Info : Audio Coding 3
Format settings, Endianness : Big
Codec ID : A_AC3
Duration : 1 h 51 min
Bit rate mode : Constant
Bit rate : 192 kb/s
Channel(s) : 2 channels
Channel positions : Front: L R
Sampling rate : 48.0 kHz
Frame rate : 31.250 FPS (1536 spf)
Bit depth : 16 bits
Compression mode : Lossy
Stream size : 152 MiB (5%)
Language : Thai
Service kind : Complete Main
Default : Yes
Forced : No



หมายเหตุ ทุกเว็บโหลดแทนกันได้ แต่ต้องเปลี่ยนชื่อให้เรียงกันด้วย

สำหรับสมาชิก VIP เท่านั้น!

[restrict …]

|——————————————————————|

|——————————————————————|

[/restrict]