Home > Mini-HD > [ชนโรง] Snowden (2016) สโนว์เดน อัจฉริยะจารกรรมเขย่ามหาอำนาจ [พากย์ไทยโรง] [MKV] [FILEFENIX] [ONE2UP]

[ชนโรง] Snowden (2016) สโนว์เดน อัจฉริยะจารกรรมเขย่ามหาอำนาจ [พากย์ไทยโรง] [MKV] [FILEFENIX] [ONE2UP]

[ชนโรง] Snowden (2016) สโนว์เดน อัจฉริยะจารกรรมเขย่ามหาอำนาจ

อีกไม่นานเกินรอภาพยนตร์เรื่อง Snowden ที่ดัดแปลงจากหนังสือ 2 เล่ม คือ The Snowden Files : The Inside Story of the World’s Most Wanted Man จากผลงานการเขียนโดย ลูค ฮาร์ดิง และ Time of the Octopus เขียนโดย อนาโทลี คูเชเรนา โดยรวบรวมเรื่องราวชีวิตของหนุ่มอัจฉริยะวัย 29 ปี ที่หาญกล้าสั่นประสาทมหาอำนาจของโลกอย่างสหรัฐอเมริกาจนทำให้เขาถูกตามล่าตัวเพื่อมารับผิดที่นำความลับของโครงการใหญ่ของสำนักงานมั่นคงแห่งชาติของสหรัฐ (NSA) ออกมาเผยแพร่ให้ทั่วโลกประจักษ์ถึงการคุกคามสิทธิและเสรีภาพขั้นพื้นฐานของประชาชนที่รัฐบสลสหรัฐใช้เทคโนโลยีเข้าไปสอดแนมชีวิตของประชาชนทุกคน

Snowden.2016.HDCAM.XviD.AC3.THRONG[load2up.com].mkv
Format : Matroska
Format version : Version 4 / Version 2
File size : 1.36 GiB
Duration : 2 h 10 min
Overall bit rate : 1 492 kb/s
Movie name : Snowden.2016.HDCAM.XviD.AC3.THRONG[load2up.com] Encoded date : UTC 2016-11-05 05:42:30
Writing application : mkvmerge v8.9.0 (‘Father Daughter’) 32bit
Writing library : libebml v1.3.3 + libmatroska v1.4.4

Video
ID : 1
Format : MPEG-4 Visual
Format profile : Advanced [email protected]
Format settings, BVOP : 2
Format settings, QPel : No
Format settings, GMC : No warppoints
Format settings, Matrix : Default (H.263)
Muxing mode : Packed bitstream
Codec ID : V_MS/VFW/FOURCC / XVID
Codec ID/Hint : XviD
Duration : 2 h 10 min
Bit rate : 1 270 kb/s
Width : 720 pixels
Height : 304 pixels
Display aspect ratio : 2.35:1
Frame rate mode : Constant
Frame rate : 29.970 (30000/1001) FPS
Color space : YUV
Chroma subsampling : 4:2:0
Bit depth : 8 bits
Scan type : Progressive
Compression mode : Lossy
Bits/(Pixel*Frame) : 0.194
Stream size : 1.16 GiB (85%)
Title : Snowden.2016.HDCAM.XviD.AC3.THEATER
Writing library : XviD 64
Language : English
Default : Yes
Forced : Yes

Audio
ID : 2
Format : AC-3
Format/Info : Audio Coding 3
Format profile : Dolby Digital
Mode extension : CM (complete main)
Format settings, Endianness : Big
Codec ID : A_AC3
Duration : 2 h 10 min
Bit rate mode : Constant
Bit rate : 192 kb/s
Channel(s) : 2 channels
Channel positions : Front: L R
Sampling rate : 48.0 kHz
Frame rate : 31.250 FPS (1536 spf)
Compression mode : Lossy
Stream size : 180 MiB (13%)
Title : TH AC3 THEATER
Language : Thai
Default : Yes
Forced : Yes



หมายเหตุ ทุกเว็บโหลดแทนกันได้ แต่ต้องเปลี่ยนชื่อให้เรียงกันด้วย


(Visited 1,077 times, 1 visits today)