Home > หนัง Zoom > [ชนโรง] Max Steel (2016) คนเหล็กคนใหม่ [พากย์ไทยโรง] [MKV] [FILEFENIX] [ONE2UP]

[ชนโรง] Max Steel (2016) คนเหล็กคนใหม่ [พากย์ไทยโรง] [MKV] [FILEFENIX] [ONE2UP]

[ชนโรง] Max Steel (2016) คนเหล็กคนใหม่

Max Steel คือเรื่องราวการผจญภัยสุดตื่นเต้นของแม็กซ์ แมคเกรธ(เบน วินเชลล์) เด็กหนุ่มคนหนึ่งที่อาศัยอยู่กับแม่ของเขา ทั้งคู่ย้ายกลับมาในเมืองเล็กๆ ที่ซึ่งพ่อของแม็กซ์ผู้เป็นนักวิทยาศาสตร์ ได้เสียชีวิตลงอย่างเป็นปริศนา ที่นั่นแม็กซ์ต้องพยายามปรับตัวกับสิ่งแวดล้อมใหม่ แต่ทุกอย่างก็ไม่ง่ายนักเมื่อบางสิ่งเกิดขึ้นกับร่างกายของเขา ทำให้แม็กซ์มีพลังพิเศษที่ต่างจากมนุษย์คนอื่นๆ พร้อมการปรากฏตัวของ ‘สตีล’ หุ่นยนต์สุดล้ำที่ช่วยชีวิตแมกซ์ไว้ได้ในยามคับขัน แมกซ์และสตีลค้นพบว่าหากพวกเขารวมพลังกัน
ก็จะสามารถควบคุมพลังให้กลายเป็นความสามารถที่เหนือมนุษย์ได้ ซึ่งจะนำทั้งคู่ไปสู่การผจญภัยเพื่อค้นหาความจริงเบื้องหลัง การเสียชีวิตของพ่อของแมกซ์ที่จะเปลี่ยนชีวิตเด็กหนุ่มธรรมดาผู้นี้และโลกทั้งใบไปตลอดกาล

Max.Steel.2016.HC.HDCAM.AC3.THRONG[Load2up.com].mkv
Format : Matroska
Format version : Version 4 / Version 2
File size : 1.72 GiB
Duration : 1 h 23 min
Overall bit rate : 2 937 kb/s
Movie name : Max.Steel.2016.HC.HDCAM.AC3.THRONG[Load2up.com] Encoded date : UTC 2016-12-13 17:44:05
Writing application : mkvmerge v9.5.0 (‘Quiet Fire’) 32bit
Writing library : libebml v1.3.4 + libmatroska v1.4.5

Video
ID : 1
Format : MPEG-4 Visual
Format profile : Advanced [email protected]
Format settings, BVOP : 2
Format settings, QPel : No
Format settings, GMC : No warppoints
Format settings, Matrix : Default (H.263)
Codec ID : V_MS/VFW/FOURCC / DIVX
Codec ID/Info : Project Mayo
Codec ID/Hint : DivX 4
Duration : 1 h 23 min
Bit rate : 2 687 kb/s
Width : 1 280 pixels
Height : 504 pixels
Display aspect ratio : 2.540
Frame rate mode : Constant
Frame rate : 25.000 FPS
Color space : YUV
Chroma subsampling : 4:2:0
Bit depth : 8 bits
Scan type : Progressive
Compression mode : Lossy
Bits/(Pixel*Frame) : 0.167
Stream size : 1.57 GiB (91%)
Title : Max.Steel.2016.HC.HDCAM.AC3.THEATER
Writing library : XviD 64
Language : English
Default : Yes
Forced : Yes

Audio
ID : 2
Format : AC-3
Format/Info : Audio Coding 3
Mode extension : CM (complete main)
Format settings, Endianness : Big
Codec ID : A_AC3
Duration : 1 h 23 min
Bit rate mode : Constant
Bit rate : 192 kb/s
Channel(s) : 2 channels
Channel positions : Front: L R
Sampling rate : 48.0 kHz
Frame rate : 31.250 FPS (1536 spf)
Bit depth : 16 bits
Compression mode : Lossy
Stream size : 115 MiB (7%)
Title : TH AC3 THEATER
Language : Thai
Default : Yes
Forced : Yes



หมายเหตุ ทุกเว็บโหลดแทนกันได้ แต่ต้องเปลี่ยนชื่อให้เรียงกันด้วย


(Visited 4,947 times, 4 visits today)